Loading...
Error

Собачья работа / Серии: 1-8 (8) (Алексей Рудаков) [2012г, Криминал, Детектив, SATRip]

Статистика раздачи
Размер:  3,97 GB   |    Зарегистрирован:  4 года 1 месяц   |    Скачан:  9 раз

Полного источника не было: 2 года

Сидов:  0  |  0 KB/s  ]   Личеров:  0  |  0 KB/s  ]

* - сиды/пиры с внешних источников

   
 
Автор Сообщение

nemos Пол:Муж

12-Окт-2012 18:20

Собачья работа


Год выпуска: 2012
Жанр: криминал, детектив
Страна: Россия
Режиссер: Алексей Рудаков
В ролях: Владимир Епифанцев, Ирина Лачина, Александр Стриженов, Светлана Немоляева, Михаил Полицеймако, Елена Дробышева, Анатолий Журавлев, Галина Звягинцева, Наталия Житкова, Сергей Фролов
Сюжет фильма:
Капитан полиции кинолог Илья Смагин во время спецоперации теряет напарника и друга — пса Рагдая, одного из лучших «поисковиков» в кинологической службе.

Смагину и его коллегам предстоит найти и обезвредить банду наркоторговцев и выяснить, где они прячут товар.

Смагин не верит в то, что ему удастся найти собаку, равную Рагдаю. В это время ему передают письмо от коллеги, убитого во время той же операции. Предчувствуя свою гибель, коллега просит Смагина позаботиться о его собаке Луше. Луша тоскует по умершему хозяину и отказывается от пищи. Смагин берет Лушу к себе.

У Луши оказывается феноменальное чутье, но при этом очень непростой характер.


Качество видео: SatRip

Продолжительность: 00:42:30 серия
Формат: AVI
Видео: DivX, 704 х 400, 1 500 kbps
Аудио: русский, MP3 2.0, 128 kbps

Код:

E:\СКАЧКИ\С underverse\Собачья работа 2012\Собачья работа.08.avi
   General
      Complete name : E:\СКАЧКИ\С underverse\Собачья работа 2012\Собачья работа.08.avi
      Format : AVI
      Format/Info : Audio Video Interleave
      File size : 500 MiB
      Duration : 42mn 30s
      Overall bit rate : 1 645 Kbps
   Video #0
      ID : 0
      Format : MPEG-4 Visual
      Format profile : Simple@L3
      Format settings, BVOP : No
      Format settings, QPel : No
      Format settings, GMC : No warppoints
      Format settings, Matrix : Default (H.263)
      Codec ID : DX50
      Codec ID/Hint : DivX 5
      Duration : 42mn 30s
      Bit rate : 1 500 Kbps
      Width : 704 pixels
      Height : 400 pixels
      Display aspect ratio : 16:9
      Frame rate : 25.000 fps
      Color space : YUV
      Chroma subsampling : 4:2:0
      Bit depth : 8 bits
      Scan type : Progressive
      Compression mode : Lossy
      Bits/(Pixel*Frame) : 0.213
      Stream size : 456 MiB (91%)
      Writing library : XviD 1.2.1 (UTC 2008-12-04)
   Audio #1
      ID : 1
      Format : MPEG Audio
      Format version : Version 1
      Format profile : Layer 3
      Mode : Joint stereo
      Mode extension : MS Stereo
      Codec ID : 55
      Codec ID/Hint : MP3
      Duration : 42mn 30s
      Bit rate mode : Constant
      Bit rate : 128 Kbps
      Channel(s) : 2 channels
      Sampling rate : 48.0 KHz
      Compression mode : Lossy
      Stream size : 38.9 MiB (8%)
      Alignment : Aligned on interleaves
      Interleave, duration : 24 ms (0.60 video frame)
      Writing library : LAME3.98.2
Семпл: http://multi-up.com/774474

picpicpicpicpicpic
Для увеличения картинки щелкните мышкой по превью

Этот торрент недоступен для скачивания без регистрации, однако доступен по публичной magnet-ссылке (источники с публичных трекеров). Перед использованием ссылки прочтите, пожалуйста Пользовательское соглашение, а также как можно дольше оставайтесь на раздаче! Для того, чтобы скачать сам торрент-файл (который видит больше источников), а также для того, чтобы поблагодарить релизера, вам необходимо зарегистрироваться. Если регистрироваться лень - вы можете также попробовать скачать релиз по нашим партнерским ссылкам ниже.

[underverse.su].t20519.torrent
Трекер: Зарегистрирован   [ 12.10.2012 18:20 ]  

Статус: проверено (by garry at 12.10.2012 19:27)
Поблагодарили: 1 человек
Тип торрента: публичный - доступные источники с открытых трекеров: 
Размер: 3,97 GB (занимает 0,91 DVDR, для записи нужно 1 болванка DVDR/RW)
 
 
Похожие темы
Форум Тема Автор Торрент Отв. Посл. сооб.
xUSSR сериалы [BD / Remux / BDRip / WEB-DL / HDTV 1080/720р] Собачья работа / Серии 8 (8) (Алексей Рудаков) [2012 г., Криминал, детектив, HDTVRip 720p] Original Чертёнок
0 | 1

0 | 1117

5

17.01.2013 23:48


Яндекс.Метрика powered by Sphinx


В Н И М А Н И Е
Сайт не распространяет и не хранит электронные версии произведений, а лишь бесплатно и без коммерческой выгоды (не требуя взамен платы,
SMS и т.д.) предоставляет доступ к создаваемому пользователями каталогу ссылок на торрент-файлы, которые содержат только списки хеш-сумм.
Убедительная просьба с жалобами обращаться напрямую к пользователю, разместившему торрент файл.

Вверх