Loading...
Error

Медальон / Stolen (Саймон Уэст) [2012 г., боевик, триллер, HDRip] Dub + Original + Sub (Rus) HQ Underverse

Статистика раздачи
Размер:  2,17 GB   |    Зарегистрирован:  4 года 1 месяц   |    Скачан:  49 раз

Полного источника не было: 6 дней

Сидов:  0  |  0 KB/s  ]   Личеров:  0  |  0 KB/s  ]

* - сиды/пиры с внешних источников

   
 
Автор Сообщение

HQ Underverse 

10-Окт-2012 21:32

Медальон / Stolen


Год выпуска: 2012
Жанр: боевик, триллер
Страна: США
Режиссер: Саймон Уэст
В ролях: Николас Кейдж, Джош Лукас, Дэнни Хьюстон, Малин Акерман, Сами Гэйл, М. К. Гейни, Марк Вэлли, Эдрик Браун, Бэрри Шебака Хенли, Дж.Д. Эвермор
Сюжет фильма:
Неизвестные похищают дочь бывшего вора в законе, решившего завязать с темным прошлым. Похитители сообщают, что держат девочку-подростка в багажнике такси. У отца есть всего несколько часов, чтобы отыскать киднепперов и спасти ребенка.

  • Мировая премьера: 6 сентября 2012
  • Российская премьера: 6 сентября 2012, «Парадиз»

|
Качество видео: HDRip

Продолжительность: 01:35:50
Формат: avi
Видео: XviD, 704x384, 2331 kbps
Аудио #1: русский, дублированный [лицензия], AC3 5.1, 448 kbps
Аудио #2: английский, оригинал, AC3 5.1, 448 kbps
Субтитры: внешние, SRT, русский (narod.ru)

Код:

General
Complete name                    : Z:\Видео\HQ\Медальон\Stolen.2012.HDRip.XviD.AC3.Rus.D.Eng.O.HQ.Underverse.avi
Format                           : AVI
Format/Info                      : Audio Video Interleave
Format profile                   : OpenDML
File size                        : 2.17 GiB
Duration                         : 1h 35mn
Overall bit rate                 : 3 244 Kbps
Writing application              : VirtualDubMod 1.5.10.2 (build 2542/release)
Writing library                  : VirtualDubMod build 2542/release

Video
ID                               : 0
Format                           : MPEG-4 Visual
Format profile                   : Streaming Video@L1
Format settings, BVOP            : Yes
Format settings, QPel            : No
Format settings, GMC             : No warppoints
Format settings, Matrix          : Custom
Muxing mode                      : Packed bitstream
Codec ID                         : XVID
Codec ID/Hint                    : XviD
Duration                         : 1h 35mn
Bit rate                         : 2 332 Kbps
Width                            : 704 pixels
Height                           : 384 pixels
Display aspect ratio             : 16/9
Frame rate                       : 24.000 fps
Resolution                       : 24 bits
Colorimetry                      : 4:2:0
Scan type                        : Progressive
Bits/(Pixel*Frame)               : 0.359
Stream size                      : 1.56 GiB (72%)
Writing library                  : XviD 64

Audio #1
ID                               : 1
Format                           : AC-3
Format/Info                      : Audio Coding 3
Codec ID                         : 2000
Duration                         : 1h 35mn
Bit rate mode                    : Constant
Bit rate                         : 448 Kbps
Channel(s)                       : 6 channels
Channel positions                : Front: L C R, Surround: L R, LFE
Sampling rate                    : 48.0 KHz
Stream size                      : 306 MiB (14%)
Alignment                        : Split accross interleaves
Interleave, duration             : 42 ms (1.00 video frame)
Interleave, preload duration     : 500 ms

Audio #2
ID                               : 2
Format                           : AC-3
Format/Info                      : Audio Coding 3
Codec ID                         : 2000
Duration                         : 1h 35mn
Bit rate mode                    : Constant
Bit rate                         : 448 Kbps
Channel(s)                       : 6 channels
Channel positions                : Front: L C R, Surround: L R, LFE
Sampling rate                    : 48.0 KHz
Stream size                      : 307 MiB (14%)
Alignment                        : Split accross interleaves
Interleave, duration             : 42 ms (1.00 video frame)
Interleave, preload duration     : 500 ms

Семпл: http://multi-up.com/773274

Релиз группы:

picpicpic
Для увеличения картинки щелкните мышкой по превью

Этот торрент недоступен для скачивания без регистрации, однако доступен по публичной magnet-ссылке (источники с публичных трекеров). Перед использованием ссылки прочтите, пожалуйста Пользовательское соглашение, а также как можно дольше оставайтесь на раздаче! Для того, чтобы скачать сам торрент-файл (который видит больше источников), а также для того, чтобы поблагодарить релизера, вам необходимо зарегистрироваться. Если регистрироваться лень - вы можете также попробовать скачать релиз по нашим партнерским ссылкам ниже.

[underverse.su].t20486.torrent
Трекер: Зарегистрирован   [ 10.10.2012 21:32 ]  

Статус: проверено (by Паукан at 11.10.2012 05:40)
Поблагодарили: 6 человек
Тип торрента: публичный - доступные источники с открытых трекеров: 
Размер: 2,17 GB (занимает 1/2 DVDR, для записи нужно 1 болванка DVDR/RW)
 
 
Похожие темы
Форум Тема Автор Торрент Отв. Посл. сооб.
Зарубежное кино [DVDRip, Low-Res HDRip, и т.д.] Медальон / Stolen (Саймон Уэст) [2012 г., боевик, триллер, DVDRip] Dub ZondeR
0 | 0

3 | 751

42

08.10.2012 04:49

Зарубежное кино [DVDRip, Low-Res HDRip, и т.д.] Медальон / Stolen (Саймон Уэст) [2012 г., боевик, триллер, BDRip-AVC] Dub Garnett
4 | 0

0 | 397

5

05.10.2012 15:05

Зарубежное кино [DVDRip, Low-Res HDRip, и т.д.] Медальон / Stolen (Саймон Уэст) [2012 г., боевик, триллер, BDRip] Dub Garnett
11 | 0

2 | 1174

109

08.10.2012 04:44

Зарубежное кино [DVDRip, Low-Res HDRip, и т.д.] Медальон / Stolen (Саймон Уэст) [2012 г., боевик, триллер, драма, BDRip-AVC] Dub + Original Garnett
1 | 0

0 | 820

27

01.11.2012 11:42


Яндекс.Метрика powered by Sphinx


В Н И М А Н И Е
Сайт не распространяет и не хранит электронные версии произведений, а лишь бесплатно и без коммерческой выгоды (не требуя взамен платы,
SMS и т.д.) предоставляет доступ к создаваемому пользователями каталогу ссылок на торрент-файлы, которые содержат только списки хеш-сумм.
Убедительная просьба с жалобами обращаться напрямую к пользователю, разместившему торрент файл.

Вверх