Loading...
Error

Секрет соседа / My Neighbor`s Secret (Лесли Хоуп) [2009 г., триллер, криминал, детектив, DVDRip] DVO + Original

Статистика раздачи
Размер:  1,46 GB   |    Зарегистрирован:  4 года 1 месяц   |    Скачан:  18 раз

Полного источника не было: 3 года 8 месяцев

Сидов:  0  |  0 KB/s  ]   Личеров:  0  |  0 KB/s  ]

* - сиды/пиры с внешних источников

   
 
Автор Сообщение

DarkAngel Пол:Муж

10-Окт-2012 18:51

Секрет соседа / My Neighbor`s Secret


Год выпуска: 2009
Жанр: триллер, криминал, детектив
Страна: Канада
Режиссер: Лесли Хоуп
В ролях: Николас Брендон, Чандра Уэст, Винсент Вентреска, Дакота Гойо, Натали Лисинска, Марк Камачо, Ник Бейлли, Николь Бланделл, Синтия Бурк, Джони Чейз
Сюжет фильма:
У Кейси Хесс и ее мужа Джейсона была прекрасная жизнь — отличная работа, крепкий брак и замечательные соседи: Брент Кавана и его жена Гретхен. Но все закончилось, когда Джейсон познакомил Гретхен со своим другом Шейном, и жизнь в доме Кавана пошла вверх дном…

  • Мировая премьера: 26 сентября 2009

Качество видео: DVDRip

Продолжительность: 01:30:13
Формат: AVI
Видео: XviD, 720 x 416 (1.731), 1533 kbps
Аудио #1: русский, двухголосый закадровый [профессиональный], AC3 5.1, 384 kbps
Аудио #2: английский, оригинал, AC3 5.1, 384 kbps

Код:

Общее
 Полное имя : E:\Фильмы\My.Neighbor's.Secret.DVD5.R5\My.Neighbor's.Secret.2009.DVDRip.Rus.Eng.avi
 Формат : AVI
 Формат/Информация : Audio Video Interleave
 Размер файла : 1,46 Гбайт
 Продолжительность : 1 ч. 30 м.
 Общий поток : 2310 Кбит/сек
 Программа кодирования : VirtualDubMod 1.5.4.1 (build 2178/release)
 Библиотека кодирования : VirtualDubMod build 2178/release

Видео
 Идентификатор : 0
 Формат : MPEG-4 Visual
 Профиль формата : Advanced Simple@L5
 Параметр BVOP формата : Нет
 Параметр QPel формата : Нет
 Параметр GMC формата : Без точки перехода
 Параметр матрицы формата : Выборочная
 Идентификатор кодека : XVID
 Идентификатор кодека/Подсказка : XviD
 Продолжительность : 1 ч. 30 м.
 Битрейт : 1533 Кбит/сек
 Ширина : 720 пикселей
 Высота : 416 пикселей
 Соотношение сторон : 1,731
 Частота кадров : 25,000 кадров/сек
 Цветовое пространство : YUV
 Субдискретизация насыщенности : 4:2:0
 Битовая глубина : 8 бит
 Тип развёртки : Прогрессивная
 Метод сжатия : С потерями
 Бит/(Пиксели*Кадры) : 0.205
 Размер потока : 990 Мбайт (66%)
 Библиотека кодирования : XviD 1.2.1 (UTC 2008-12-04)

Аудио #1
 Идентификатор : 1
 Формат : AC-3
 Формат/Информация : Audio Coding 3
 Расширение режима : CM (complete main)
 Параметр Endianness формата : Big
 Идентификатор кодека : 2000
 Продолжительность : 1 ч. 30 м.
 Вид битрейта : Постоянный
 Битрейт : 384 Кбит/сек
 Каналы : 6 каналов
 Расположение каналов : Front: L C R, Side: L R, LFE
 Частота : 48,0 КГц
 Битовая глубина : 16 бит
 Метод сжатия : С потерями
 Размер потока : 248 Мбайт (17%)
 Выравнивание : Разделение по промежуткам
 Продолжительность промежутка : 96 мс. (2,40 видеокадра)
 Время предзагрузки промежутка : 96 мс.
 Язык : Russian

Аудио #2
 Идентификатор : 2
 Формат : AC-3
 Формат/Информация : Audio Coding 3
 Расширение режима : CM (complete main)
 Параметр Endianness формата : Big
 Идентификатор кодека : 2000
 Продолжительность : 1 ч. 30 м.
 Вид битрейта : Постоянный
 Битрейт : 384 Кбит/сек
 Каналы : 6 каналов
 Расположение каналов : Front: L C R, Side: L R, LFE
 Частота : 48,0 КГц
 Битовая глубина : 16 бит
 Метод сжатия : С потерями
 Размер потока : 248 Мбайт (17%)
 Выравнивание : Разделение по промежуткам
 Продолжительность промежутка : 96 мс. (2,40 видеокадра)
 Время предзагрузки промежутка : 96 мс.
 Язык : English
picpicpic
Для увеличения картинки щелкните мышкой по превью

Этот торрент недоступен для скачивания без регистрации, однако доступен по публичной magnet-ссылке (источники с публичных трекеров). Перед использованием ссылки прочтите, пожалуйста Пользовательское соглашение, а также как можно дольше оставайтесь на раздаче! Для того, чтобы скачать сам торрент-файл (который видит больше источников), а также для того, чтобы поблагодарить релизера, вам необходимо зарегистрироваться. Если регистрироваться лень - вы можете также попробовать скачать релиз по нашим партнерским ссылкам ниже.

[underverse.su].t20482.torrent
Трекер: Зарегистрирован   [ 10.10.2012 18:51 ]  

Статус: проверено (by Паукан at 11.10.2012 08:29)
Поблагодарили: пока никто не поблагодарил...
Тип торрента: публичный - доступные источники с открытых трекеров: 
Размер: 1,46 GB (занимает 1/3 DVDR, для записи нужно 1 болванка DVDR/RW)
 
 


Последний раз редактировалось: DarkAngel (11.10.2012 08:17), всего редактировалось 1 раз

Паукан Пол:Муж

10-Окт-2012 20:51

DarkAngel писал(а):

MPEG-4 AVC
а может все таки XviD а не AVC?
в MediaInfo написано XviD

Яндекс.Метрика powered by Sphinx


В Н И М А Н И Е
Сайт не распространяет и не хранит электронные версии произведений, а лишь бесплатно и без коммерческой выгоды (не требуя взамен платы,
SMS и т.д.) предоставляет доступ к создаваемому пользователями каталогу ссылок на торрент-файлы, которые содержат только списки хеш-сумм.
Убедительная просьба с жалобами обращаться напрямую к пользователю, разместившему торрент файл.

Вверх