Loading...
Error

Клуб безбашенных / The Bang Bang Club (Стивен Сильвер) [2010 г., драма, HDRip] MVO [лицензия] + Original eng

Статистика раздачи
Размер:  2,05 GB   |    Зарегистрирован:  4 года 1 месяц   |    Скачан:  13 раз

Полного источника не было: 7 месяцев

Сидов:  0  |  0 KB/s  ]   Личеров:  0  |  0 KB/s  ]

* - сиды/пиры с внешних источников

   
 
Автор Сообщение

90ytr90 

10-Окт-2012 17:45

Клуб безбашенных / The Bang Bang Club
«Бесстрашные герои или адреналиновые наркоманы?»

Страна: Канада, ЮАР / Foundry Films, Harold Greenberg Fund, The, Instinctive Film
Год выпуска: 2010
Дата мировой премьеры: 15 сентября 2010
Дата российской премьеры: 21 июня 2012, «Кино без границ»
Жанр: драма
Продолжительность:01:48:03
Озвучивание: Профессиональное (многоголосое) [лицензия]
Режиссёр: Стивен Сильвер

В ролях: Малин Акерман, Райан Филипп, Тейлор Китч, Франсуа Ротенбаш, Неелс Ван Яарсвелд, Руссел Савадиер, Ашлеы Фриедландер, Патрик Листер, Нельсон Мандела


Сюжет: Реальная история четырех молодых фотографов в ЮАР времен апартеида. Это удивительная и иногда ужасающая история людей и их невероятного подвига, на который они пошли, чтобы заполучить заветные фотографии.

     

Качество раздачи: HDRip
Контейнер: AVI (XviD)
Видео: 1814 kb/s, 720x304
Аудио #1: русский, многоголосый закадровый [лицензия], AC3 2.0, 448 kbps
Аудио #2: оригинал, английский, AC3 5.1, 448 kbps
picpicpic
Для увеличения картинки щелкните мышкой по превью

Код:

General
Complete name                    : O:\Klub.bezbashennyh.2010.P.HDRip.avi
Format                           : AVI
Format/Info                      : Audio Video Interleave
Format profile                   : OpenDML
File size                        : 2.05 GiB
Duration                         : 1h 48mn
Overall bit rate                 : 2 718 Kbps

Video
ID                               : 0
Format                           : MPEG-4 Visual
Format profile                   : Streaming Video@L1
Format settings, BVOP            : Yes
Format settings, QPel            : No
Format settings, GMC             : No warppoints
Format settings, Matrix          : Custom
Codec ID                         : XVID
Codec ID/Hint                    : XviD
Duration                         : 1h 48mn
Bit rate                         : 1 803 Kbps
Width                            : 720 pixels
Height                           : 304 pixels
Display aspect ratio             : 2.35
Frame rate                       : 23.976 fps
Resolution                       : 24 bits
Colorimetry                      : 4:2:0
Scan type                        : Progressive
Bits/(Pixel*Frame)               : 0.344
Stream size                      : 1.36 GiB (66%)
Writing library                  : XviD 65

Audio #1
ID                               : 1
Format                           : AC-3
Format/Info                      : Audio Coding 3
Codec ID                         : 2000
Duration                         : 1h 48mn
Bit rate mode                    : Constant
Bit rate                         : 448 Kbps
Channel(s)                       : 2 channels
Channel positions                : L R
Sampling rate                    : 48.0 KHz
Stream size                      : 346 MiB (16%)
Alignment                        : Split accross interleaves
Interleave, duration             : 42 ms (1.00 video frame)
Interleave, preload duration     : 500 ms

Audio #2
ID                               : 2
Format                           : AC-3
Format/Info                      : Audio Coding 3
Codec ID                         : 2000
Duration                         : 1h 48mn
Bit rate mode                    : Constant
Bit rate                         : 448 Kbps
Channel(s)                       : 6 channels
Channel positions                : Front: L C R, Surround: L R, LFE
Sampling rate                    : 48.0 KHz
Stream size                      : 346 MiB (16%)
Alignment                        : Split accross interleaves
Interleave, duration             : 42 ms (1.00 video frame)
Interleave, preload duration     : 500 ms

Этот торрент недоступен для скачивания без регистрации, однако доступен по публичной magnet-ссылке (источники с публичных трекеров). Перед использованием ссылки прочтите, пожалуйста Пользовательское соглашение, а также как можно дольше оставайтесь на раздаче! Для того, чтобы скачать сам торрент-файл (который видит больше источников), а также для того, чтобы поблагодарить релизера, вам необходимо зарегистрироваться. Если регистрироваться лень - вы можете также попробовать скачать релиз по нашим партнерским ссылкам ниже.

[underverse.su].t20475.torrent
Трекер: Зарегистрирован   [ 10.10.2012 17:45 ]  

Статус: проверено (by garry at 10.10.2012 18:08)
Поблагодарили: пока никто не поблагодарил...
Тип торрента: публичный - доступные источники с открытых трекеров: 
Размер: 2,05 GB (занимает 0,47 DVDR, для записи нужно 1 болванка DVDR/RW)
 
 
Похожие темы
Форум Тема Автор Торрент Отв. Посл. сооб.
Зарубежное кино [DVDRip, Low-Res HDRip, и т.д.] Клуб безбашенных / The Bang Bang Club (Стивен Сильвер) [2010 г., драма, HDRip] garry
1 | 0

0 | 367

6

27.06.2012 13:41


Яндекс.Метрика powered by Sphinx


В Н И М А Н И Е
Сайт не распространяет и не хранит электронные версии произведений, а лишь бесплатно и без коммерческой выгоды (не требуя взамен платы,
SMS и т.д.) предоставляет доступ к создаваемому пользователями каталогу ссылок на торрент-файлы, которые содержат только списки хеш-сумм.
Убедительная просьба с жалобами обращаться напрямую к пользователю, разместившему торрент файл.

Вверх