Loading...
Error

Гнусный / Vile (Тейлор Шеридан / Taylor Sheridan) [2011 г., ужасы, DVDRip] VO [den904]

Статистика раздачи
Размер:  1,36 GB   |    Зарегистрирован:  4 года 1 месяц   |    Скачан:  14 раз

Полного источника не было: 6 дней

Сидов:  0  |  0 KB/s  ]   Личеров:  0  |  0 KB/s  ]

* - сиды/пиры с внешних источников

   
 
Автор Сообщение

DarkAngel Пол:Муж

09-Окт-2012 19:32

Гнусный / Vile


Год выпуска: 2011
Жанр: ужасы
Страна: США
Режиссер: Тейлор Шеридан / Taylor Sheridan
В ролях: Эрик Джей, Бек Эйприл, Грег Сайпс, Элиша Скорма, Хайди Мюллер, Майя Хазен, Роб Керклэнд, МакКензи Вестмор, Иэн Боэн
Сюжет фильма:
Восемь незнакомцев просыпаются в доме и с ужасом осознают, что не могут покинуть помещение. Единственный путь получить свободу, это произвести необходимое количество химического вещества, которое вырабатывает человеческое тело под действием физической боли. Наши герои против их воли вынуждены причинять друг другу боль, чтобы вырабатывать эндорфины для их похитителей. Много боли, очень много боли...
Качество видео: DVDRip

Продолжительность: 01:27:50
Формат: AVI
Видео: XviD, 720x400, 1 764 kbps
Аудио: русский, одноголосый закадровый [любительский (den904)], AC3 5.1, 448 kbps

Код:

Format : AVI
 Format/Info : Audio Video Interleave
 File size : 1.36 GiB
 Duration : 1h 27mn
 Overall bit rate : 2 221 Kbps
 Writing application : VirtualDubMod 1.5.10.2 (build 2540/release)
 Writing library : VirtualDubMod build 2540/release

Video
 ID : 0
 Format : MPEG-4 Visual
 Format profile : Advanced Simple@L5
 Format settings, BVOP : Yes
 Format settings, QPel : No
 Format settings, GMC : No warppoints
 Format settings, Matrix : Default (MPEG)
 Codec ID : XVID
 Codec ID/Hint : XviD
 Duration : 1h 27mn
 Bit rate : 1 764 Kbps
 Width : 720 pixels
 Height : 400 pixels
 Display aspect ratio : 16:9
 Frame rate : 23.976 fps
 Resolution : 8 bits
 Colorimetry : 4:2:0
 Scan type : Progressive
 Bits/(Pixel*Frame) : 0.255
 Stream size : 1.08 GiB (79%)
 Writing library : XviD 1.2.1 (UTC 2008-12-04)

Audio
 ID : 1
 Format : AC-3
 Format/Info : Audio Coding 3
 Codec ID : 2000
 Duration : 1h 27mn
 Bit rate mode : Constant
 Bit rate : 448 Kbps
 Channel(s) : 6 channels
 Channel positions : Front: L C R, Surround: L R, LFE
 Sampling rate : 48.0 KHz
 Stream size : 281 MiB (20%)
 Alignment : Split accross interleaves
 Interleave, duration : 42 ms (1.00 video frame)
 Interleave, preload duration : 500 ms
Семпл: http://multi-up.com/772285

picpicpic
Для увеличения картинки щелкните мышкой по превью

Этот торрент недоступен для скачивания без регистрации, однако доступен по публичной magnet-ссылке (источники с публичных трекеров). Перед использованием ссылки прочтите, пожалуйста Пользовательское соглашение, а также как можно дольше оставайтесь на раздаче! Для того, чтобы скачать сам торрент-файл (который видит больше источников), а также для того, чтобы поблагодарить релизера, вам необходимо зарегистрироваться. Если регистрироваться лень - вы можете также попробовать скачать релиз по нашим партнерским ссылкам ниже.

[underverse.su].t20461.torrent
Трекер: Зарегистрирован   [ 09.10.2012 19:32 ]  

Статус: проверено (by garry at 09.10.2012 20:02)
Поблагодарили: пока никто не поблагодарил...
Тип торрента: публичный - доступные источники с открытых трекеров: 
Размер: 1,36 GB (занимает 0,31 DVDR, для записи нужно 1 болванка DVDR/RW)
 
 

09-Окт-2012 20:02

Топик был перенесен из форума Арт-хаус и Авторское кино в форум Зарубежное кино [DVDRip, Low-Res HDRip, и т.д.]


gari
 

Яндекс.Метрика powered by Sphinx


В Н И М А Н И Е
Сайт не распространяет и не хранит электронные версии произведений, а лишь бесплатно и без коммерческой выгоды (не требуя взамен платы,
SMS и т.д.) предоставляет доступ к создаваемому пользователями каталогу ссылок на торрент-файлы, которые содержат только списки хеш-сумм.
Убедительная просьба с жалобами обращаться напрямую к пользователю, разместившему торрент файл.

Вверх