Loading...
Error

Полярная станция «Зебра» / Ice Station Zebra (Джон Стёрджес) [1968 г., боевик, триллер, драма, BDRip] MVO

Статистика раздачи
Размер:  2,9 GB   |    Зарегистрирован:  4 года 1 месяц   |    Скачан:  2 раза

Полного источника не было: 1 год 10 месяцев

Сидов:  0  |  0 KB/s  ]   Личеров:  0  |  0 KB/s  ]

* - сиды/пиры с внешних источников

   
 
Автор Сообщение

Ripodelnia Пол:Муж

08-Окт-2012 15:38

Полярная станция «Зебра» / Ice Station Zebra


Год выпуска: 1968
Жанр: боевик, триллер, драма
Страна: США
Режиссер: Джон Стёрджес
В ролях: Рок Хадсон, Эрнест Боргнайн, Патрик МакГуэн, Джим Браун, Тони Билл, Ллойд Нолан, Альф Челлин, Джералд С. О’Лофлин, Тед Хартли, Мюррэй Роуз
Сюжет фильма:
Ядерная подводная лодка США отправляется в Арктику с секретным заданием. Находящийся на борту бесстрашный агент ЦРУ Джеймс Фарадей сталкивается с противодействием агентов КГБ на земле, под водой, и даже на самом Полюсе…

  • Мировая премьера: 23 октября 1968


Качество видео: BDRip [Ice Station Zebra 1968 1080p Blu-ray AVC DTS-HD MA 5.1-HDChina]

Продолжительность: 02:29:11
Формат: avi
Видео: XviD, 720x336, 2129 kbps
Аудио #1: русский, многоголосый закадровый [профессиональный], AC3 2.0, 192 kbps
Аудио #2: английский, оригинал, AC3 5.1, 448 kbps

Код:

General
Complete name                            : D:\Video\Movies\Releases\Ice.Station.Zebra.1968.BDRip.XviD.Rus.MVO.Eng.O.Ripodelnia.avi
Format                                   : AVI
Format/Info                              : Audio Video Interleave
Format profile                           : OpenDML
File size                                : 2.90 GiB
Duration                                 : 2h 29mn
Overall bit rate                         : 2 785 Kbps
Writing application                      : VirtualDubMod 1.5.10.2 (build 2542/release)
Writing library                          : VirtualDubMod build 2542/release

Video
ID                                       : 0
Format                                   : MPEG-4 Visual
Format profile                           : Advanced Simple@L5
Format settings, BVOP                    : 1
Format settings, QPel                    : No
Format settings, GMC                     : No warppoints
Format settings, Matrix                  : Custom
Muxing mode                              : Packed bitstream
Codec ID                                 : XVID
Codec ID/Hint                            : XviD
Duration                                 : 2h 29mn
Bit rate                                 : 2 129 Kbps
Width                                    : 720 pixels
Height                                   : 336 pixels
Display aspect ratio                     : 2.143
Frame rate                               : 23.976 fps
Color space                              : YUV
Chroma subsampling                       : 4:2:0
Bit depth                                : 8 bits
Scan type                                : Progressive
Compression mode                         : Lossy
Bits/(Pixel*Frame)                       : 0.367
Stream size                              : 2.22 GiB (76%)
Writing library                          : XviD 64

Audio #1
ID                                       : 1
Format                                   : AC-3
Format/Info                              : Audio Coding 3
Mode extension                           : CM (complete main)
Format settings, Endianness              : Big
Codec ID                                 : 2000
Duration                                 : 2h 29mn
Bit rate mode                            : Constant
Bit rate                                 : 192 Kbps
Channel(s)                               : 2 channels
Channel positions                        : Front: L R
Sampling rate                            : 48.0 KHz
Bit depth                                : 16 bits
Compression mode                         : Lossy
Delay relative to video                  : 1s 0ms
Stream size                              : 205 MiB (7%)
Alignment                                : Split accross interleaves
Interleave, duration                     : 42 ms (1.00 video frame)
Interleave, preload duration             : 500 ms
Title                                    : Ice.Station.Zebra.1968.Rus.MVO.AC3.2.0.192.kbps

Audio #2
ID                                       : 2
Format                                   : AC-3
Format/Info                              : Audio Coding 3
Mode extension                           : CM (complete main)
Format settings, Endianness              : Big
Codec ID                                 : 2000
Duration                                 : 2h 29mn
Bit rate mode                            : Constant
Bit rate                                 : 448 Kbps
Channel(s)                               : 6 channels
Channel positions                        : Front: L C R, Side: L R, LFE
Sampling rate                            : 48.0 KHz
Bit depth                                : 16 bits
Compression mode                         : Lossy
Stream size                              : 478 MiB (16%)
Alignment                                : Split accross interleaves
Interleave, duration                     : 42 ms (1.00 video frame)
Interleave, preload duration             : 500 ms
Title                                    : Ice.Station.Zebra.1968.Eng.O.AC3.5.1.448.kbps

Семпл: http://multi-up.com/773027

pic pic pic
Для увеличения картинки щелкните мышкой по превью

Этот торрент недоступен для скачивания без регистрации, однако доступен по публичной magnet-ссылке (источники с публичных трекеров). Перед использованием ссылки прочтите, пожалуйста Пользовательское соглашение, а также как можно дольше оставайтесь на раздаче! Для того, чтобы скачать сам торрент-файл (который видит больше источников), а также для того, чтобы поблагодарить релизера, вам необходимо зарегистрироваться. Если регистрироваться лень - вы можете также попробовать скачать релиз по нашим партнерским ссылкам ниже.

[underverse.su].t20428.torrent
Трекер: Зарегистрирован   [ 10.10.2012 11:51 ]  

Статус: проверено (by garry at 10.10.2012 14:21)
Поблагодарили: 1 человек
Тип торрента: публичный - доступные источники с открытых трекеров: 
Размер: 2,9 GB (занимает 2/3 DVDR, для записи нужно 1 болванка DVDR/RW)
 
 

Ripodelnia Пол:Муж

10-Окт-2012 11:53

по тех. причинам торрент-файл пришлось заменить. извините за неудобства.

Яндекс.Метрика powered by Sphinx


В Н И М А Н И Е
Сайт не распространяет и не хранит электронные версии произведений, а лишь бесплатно и без коммерческой выгоды (не требуя взамен платы,
SMS и т.д.) предоставляет доступ к создаваемому пользователями каталогу ссылок на торрент-файлы, которые содержат только списки хеш-сумм.
Убедительная просьба с жалобами обращаться напрямую к пользователю, разместившему торрент файл.

Вверх