Loading...
Error

Семь дней в утопии / Seven Days in Utopia (Мэтт Расселл) [2011 г., драма, спорт, HDRip] 2xVO

Статистика раздачи
Размер:  1,47 GB   |    Зарегистрирован:  4 года 2 месяца   |    Скачан:  3 раза

Полного источника не было: 4 года

Сидов:  0  |  0 KB/s  ]   Личеров:  0  |  0 KB/s  ]

* - сиды/пиры с внешних источников

   
 
Автор Сообщение

RG NewCinema 

07-Окт-2012 20:19

Семь дней в утопии / Seven Days in Utopia


Год выпуска: 2011
Жанр: драма, спорт
Страна: США
Режиссер: Мэтт Расселл
В ролях: Роберт Беар, Лукас Блэк, Мэдисон Бёрдж, Брэйди Коулмэн, Ким Патрик, Ричард Диллард, Роберт Дюваль, Джерри Феррара, Сара Джэйн Дженсен, Мелисса Лео
Сюжет фильма:
История о талантливом гольфисте Люке Чизольме, пытающемся стать про-гольфистом. Его первый большой турнир заканчивается поражением. Подавленный, он бежит от всех и находит себя в техасском местечке Утопия. Знакомится с чудоковатым фермером Джонни, который предлагает ему провести 7 дней в Утопии. Эти дни изменят его и его будущее.

  • Мировая премьера: 2 сентября 2011

|
Качество видео: HDRip

Продолжительность: 01:38:47
Формат: AVI
Видео: XviD, 720x304, 1225 kbps
Аудио: русский, одноголосый закадровый [Kenum], AC3 5.1, 448 kbps
Аудио: русский, одноголосый закадровый [Агент Смит], AC3 5.1, 448 kbps

Код:

D:\ОЗВУЧКА\ГОТОВОЕ\ФИЛЬМЫ\7 ДНЕЙ В УТОПИИ\7.Dnei.v.Utopii.2011.ViruseProject.avi
General
Complete name : D:\ОЗВУЧКА\ГОТОВОЕ\ФИЛЬМЫ\7 ДНЕЙ В УТОПИИ\7.Dnei.v.Utopii.2011.ViruseProject.avi
Format : AVI
Format/Info : Audio Video Interleave
File size : 1.47 GiB
Duration : 1h 38mn
Overall bit rate : 2 136 Kbps
Writing application : VirtualDubMod 1.5.10.2 (build 2540/release)
Writing library : VirtualDubMod build 2540/release
Video #0
ID : 0
Format : MPEG-4 Visual
Format profile : Advanced Simple@L5
Format settings, BVOP : 2
Format settings, QPel : No
Format settings, GMC : No warppoints
Format settings, Matrix : Default (H.263)
Muxing mode : Packed bitstream
Codec ID : XVID
Codec ID/Hint : XviD
Duration : 1h 38mn
Bit rate : 1 226 Kbps
Width : 720 pixels
Height : 304 pixels
Display aspect ratio : 2.35:1
Frame rate : 23.976 fps
Color space : YUV
Chroma subsampling : 4:2:0
Bit depth : 8 bits
Scan type : Progressive
Compression mode : Lossy
Bits/(Pixel*Frame) : 0.234
Stream size : 866 MiB (57%)
Writing library : XviD 64
Audio #1
ID : 1
Format : AC-3
Format/Info : Audio Coding 3
Mode extension : CM (complete main)
Format settings, Endianness : Big
Codec ID : 2000
Duration : 1h 38mn
Bit rate mode : Constant
Bit rate : 448 Kbps
Channel(s) : 6 channels
Channel positions : Front: L C R, Side: L R, LFE
Sampling rate : 48.0 KHz
Bit depth : 16 bits
Compression mode : Lossy
Stream size : 317 MiB (21%)
Alignment : Split accross interleaves
Interleave, duration : 42 ms (1.00 video frame)
Interleave, preload duration : 500 ms
Audio #2
ID : 2
Format : AC-3
Format/Info : Audio Coding 3
Mode extension : CM (complete main)
Format settings, Endianness : Big
Codec ID : 2000
Duration : 1h 38mn
Bit rate mode : Constant
Bit rate : 448 Kbps
Channel(s) : 6 channels
Channel positions : Front: L C R, Side: L R, LFE
Sampling rate : 48.0 KHz
Bit depth : 16 bits
Compression mode : Lossy
Stream size : 317 MiB (21%)
Alignment : Split accross interleaves
Interleave, duration : 42 ms (1.00 video frame)
Interleave, preload duration : 500 ms
Семпл: http://multi-up.com/770036

picpicpic
Для увеличения картинки щелкните мышкой по превью

Этот торрент недоступен для скачивания без регистрации, однако доступен по публичной magnet-ссылке (источники с публичных трекеров). Перед использованием ссылки прочтите, пожалуйста Пользовательское соглашение, а также как можно дольше оставайтесь на раздаче! Для того, чтобы скачать сам торрент-файл (который видит больше источников), а также для того, чтобы поблагодарить релизера, вам необходимо зарегистрироваться. Если регистрироваться лень - вы можете также попробовать скачать релиз по нашим партнерским ссылкам ниже.

[underverse.su].t20415.torrent
Трекер: Зарегистрирован   [ 07.10.2012 20:19 ]  

Статус: проверено (by garry at 08.10.2012 08:13)
Поблагодарили: пока никто не поблагодарил...
Тип торрента: публичный - доступные источники с открытых трекеров: 
Размер: 1,47 GB (занимает 0,34 DVDR, для записи нужно 1 болванка DVDR/RW)
 
 
Похожие темы
Форум Тема Автор Торрент Отв. Посл. сооб.
Зарубежное кино [DVDRip, Low-Res HDRip, и т.д.] Семь дней в Утопии / Seven Days in Utopia (Мэтт Расселл / Matt Russell) [2011 г., драма, спорт, BDRip] 2xVO + Original + Sub (Eng,Rus) Паукан
4 | 0

0 | 782

2

03.07.2013 09:22

shuher131 

08-Окт-2012 08:53

Кто скажет, как фильм?
:)

Яндекс.Метрика powered by Sphinx


В Н И М А Н И Е
Сайт не распространяет и не хранит электронные версии произведений, а лишь бесплатно и без коммерческой выгоды (не требуя взамен платы,
SMS и т.д.) предоставляет доступ к создаваемому пользователями каталогу ссылок на торрент-файлы, которые содержат только списки хеш-сумм.
Убедительная просьба с жалобами обращаться напрямую к пользователю, разместившему торрент файл.

Вверх