Loading...
Error

Раскрашенная кожа 2 / Hua Pi 2 (Вуершан) [2012 г., фэнтези, боевик, триллер, драма, BDRip] DVO (den904, DeadSno)

Статистика раздачи
Размер:  2,06 GB   |    Зарегистрирован:  4 года 2 месяца   |    Скачан:  12 раз

Полного источника не было: 1 год 5 месяцев

Сидов:  0  |  0 KB/s  ]   Личеров:  0  |  0 KB/s  ]

* - сиды/пиры с внешних источников

   
 
Автор Сообщение

DarkAngel Пол:Муж

07-Окт-2012 20:03

Раскрашенная кожа 2 / Hua Pi 2


Год выпуска: 2012
Жанр: фэнтези, боевик, триллер, драма
Страна: Китай
Режиссер: Вуершан
В ролях: Чжоу Сюнь, Чэнь Кунь, Чжао Вэй, Ми Янг, Уилльям Фенг, Фэй Ксинг, Морган Бенуа
Сюжет фильма:
Чтобы стать смертным демон должен прожить на земле несколько сот лет, но и этого недостаточно, чтобы ощутить весь спектр человеческих эмоций и подлинную экзистенциальную грусть. Для получения этих бонусов демон должен найти человека, готового пожертвовать собственными чувствами и собственной бессмертной душой.

  • Мировая премьера: 28 июня 2012

Качество видео: BDRip

Продолжительность: 02:11:32
Формат: AVI
Видео: XviD, 720x304 (2.37:1), 2102 kbps
Аудио: русский, двухголосый закадровый [любительский (den904, DeadSno)], MP3 2.0, 128 kbps

Код:

Format : AVI
 Format/Info : Audio Video Interleave
 Format profile : OpenDML
 File size : 2.06 GiB
 Duration : 2h 11mn
 Overall bit rate : 2 237 Kbps
 Writing application : VirtualDubMod 1.5.10.2 (build 2540/release)
 Writing library : VirtualDubMod build 2540/release

Video
 ID : 0
 Format : MPEG-4 Visual
 Format profile : Advanced Simple@L5
 Format settings, BVOP : No
 Format settings, QPel : No
 Format settings, GMC : No warppoints
 Format settings, Matrix : Custom
 Codec ID : XVID
 Codec ID/Hint : XviD
 Duration : 2h 11mn
 Bit rate : 2 097 Kbps
 Width : 720 pixels
 Height : 304 pixels
 Display aspect ratio : 2.35:1
 Frame rate : 25.000 fps
 Color space : YUV
 Chroma subsampling : 4:2:0
 Bit depth : 8 bits
 Scan type : Progressive
 Compression mode : Lossy
 Bits/(Pixel*Frame) : 0.383
 Stream size : 1.93 GiB (94%)
 Writing library : XviD 1.0.2 (UTC 2004-08-29)

Audio
 ID : 1
 Format : MPEG Audio
 Format version : Version 1
 Format profile : Layer 3
 Mode : Joint stereo
 Mode extension : MS Stereo
 Codec ID : 55
 Codec ID/Hint : MP3
 Duration : 2h 11mn
 Bit rate mode : Constant
 Bit rate : 128 Kbps
 Channel(s) : 2 channels
 Sampling rate : 48.0 KHz
 Compression mode : Lossy
 Stream size : 120 MiB (6%)
 Alignment : Aligned on interleaves
 Interleave, duration : 40 ms (1.00 video frame)
 Interleave, preload duration : 504 ms
Семпл: http://multi-up.com/770494

picpicpic
Для увеличения картинки щелкните мышкой по превью

Этот торрент недоступен для скачивания без регистрации, однако доступен по публичной magnet-ссылке (источники с публичных трекеров). Перед использованием ссылки прочтите, пожалуйста Пользовательское соглашение, а также как можно дольше оставайтесь на раздаче! Для того, чтобы скачать сам торрент-файл (который видит больше источников), а также для того, чтобы поблагодарить релизера, вам необходимо зарегистрироваться. Если регистрироваться лень - вы можете также попробовать скачать релиз по нашим партнерским ссылкам ниже.

[underverse.su].t20412.torrent
Трекер: Зарегистрирован   [ 07.10.2012 20:03 ]  

Статус: проверено (by Паукан at 07.10.2012 20:08)
Поблагодарили: пока никто не поблагодарил...
Тип торрента: публичный - доступные источники с открытых трекеров: 
Размер: 2,06 GB (занимает 0,47 DVDR, для записи нужно 1 болванка DVDR/RW)
 
 
Похожие темы
Форум Тема Автор Торрент Отв. Посл. сооб.
Зарубежное кино [DVDRip, Low-Res HDRip, и т.д.] Раскрашенная кожа 2 / Hua Pi 2 / Painted Skin: The Resurrection (Вуершан) [2012 г., Фэнтези, боевик, триллер, драма, BDRip] MVO 90ytr90
4 | 1

0 | 1546

20

21.12.2012 16:01

Зарубежное кино [HDDVDRip / BDRip / WEB-DL / HDTV 1080/720р] Раскрашенная кожа 2: Воскрешение / Painted Skin: The Resurrection / Hua Pi 2 (Вуершан / Wuershan) [2012 г., фэнтези, драма, сказка, BDRip 720p] MVO + Original (Chi) + Sub (Rus/Eng) Доктор Ватсон
2 | 0

1 | 753

5

21.07.2013 11:52


Яндекс.Метрика powered by Sphinx


В Н И М А Н И Е
Сайт не распространяет и не хранит электронные версии произведений, а лишь бесплатно и без коммерческой выгоды (не требуя взамен платы,
SMS и т.д.) предоставляет доступ к создаваемому пользователями каталогу ссылок на торрент-файлы, которые содержат только списки хеш-сумм.
Убедительная просьба с жалобами обращаться напрямую к пользователю, разместившему торрент файл.

Вверх