Loading...
Error

Игра / Серии: 1-20 (20) (Георгий Гаврилов, Сергей Лесогоров) [2011 г., Детектив, SATRip]

Статистика раздачи
Размер:  10,37 GB   |    Зарегистрирован:  4 года 1 месяц   |    Скачан:  9 раз

Полного источника не было: 2 года

Сидов:  0  |  0 KB/s  ]   Личеров:  0  |  0 KB/s  ]

* - сиды/пиры с внешних источников

   
 
Автор Сообщение

nemos Пол:Муж

05-Окт-2012 17:43


Год выпуска: 2011
Жанр: криминал, детектив
Страна: Россия
Режиссер: Георгий Гаврилов, Сергей Лесогоров, Геннадий Иванов
В ролях: Виталий Емашов, Павел Баршак, Дарья Повереннова, Владимир Фекленко, Наталья Левина, Спартак Сумченко, Мария Горбань, Вероника Амирханова, Игорь Теплов, Андрей Лебедев
Сюжет фильма:
От создателей телесериала "Глухарь"!
Сериал расскажет о противостоянии двух невероятно сильных личностей: следователя ФСБ Белова и отчаянного бандита Смолина, которые, однажды столкнувшись, станут личными врагами на всю жизнь. Это будет захватывающий поединок между равновеликими фигурами, одного из которых ведут правильные и положительные чувства и эмоции, второго - самые низменные пороки и страсти.


Качество видео: SatRip

Продолжительность: 00:48:32 серия
Формат: AVI
Видео: XviD, 704x384, 1 408 kbps
Аудио: русский, MP3 2.0, 128 kbps

Код:

E:\ÑÊÀ×ÊÈ\Ñ underverse\Igra.2011.SATRip [riperam]\Igra.20.avi
   General
      Complete name : E:\ÑÊÀ×ÊÈ\Ñ underverse\Igra.2011.SATRip [riperam]\Igra.20.avi
      Format : AVI
      Format/Info : Audio Video Interleave
      File size : 537 MiB
      Duration : 48mn 32s
      Overall bit rate : 1 546 Kbps
      Writing application : VirtualDubMod 1.5.10.2 (build 2540/release)
      Writing library : VirtualDub build 32842/release
   Video #0
      ID : 0
      Format : MPEG-4 Visual
      Format profile : Advanced Simple@L5
      Format settings, BVOP : 2
      Format settings, QPel : No
      Format settings, GMC : No warppoints
      Format settings, Matrix : Default (MPEG)
      Muxing mode : Packed bitstream
      Codec ID : XVID
      Codec ID/Hint : XviD
      Duration : 48mn 32s
      Bit rate : 1 408 Kbps
      Width : 704 pixels
      Height : 384 pixels
      Display aspect ratio : 1.85:1
      Frame rate : 25.000 fps
      Color space : YUV
      Chroma subsampling : 4:2:0
      Bit depth : 8 bits
      Scan type : Progressive
      Compression mode : Lossy
      Bits/(Pixel*Frame) : 0.208
      Stream size : 489 MiB (91%)
      Writing library : XviD 63
   Audio #1
      ID : 1
      Format : MPEG Audio
      Format version : Version 1
      Format profile : Layer 3
      Mode : Joint stereo
      Mode extension : MS Stereo
      Codec ID : 55
      Codec ID/Hint : MP3
      Duration : 48mn 32s
      Bit rate mode : Constant
      Bit rate : 128 Kbps
      Channel(s) : 2 channels
      Sampling rate : 48.0 KHz
      Compression mode : Lossy
      Stream size : 44.4 MiB (8%)
      Alignment : Aligned on interleaves
      Interleave, duration : 40 ms (1.00 video frame)
      Interleave, preload duration : 504 ms
      Writing library : LAME3.90.3
Семпл: http://multi-up.com/770685

picpicpicpicpicpicpicpicpicpicpicpicpicpicpicpicpicpic
Для увеличения картинки щелкните мышкой по превью

Этот торрент недоступен для скачивания без регистрации, однако доступен по публичной magnet-ссылке (источники с публичных трекеров). Перед использованием ссылки прочтите, пожалуйста Пользовательское соглашение, а также как можно дольше оставайтесь на раздаче! Для того, чтобы скачать сам торрент-файл (который видит больше источников), а также для того, чтобы поблагодарить релизера, вам необходимо зарегистрироваться. Если регистрироваться лень - вы можете также попробовать скачать релиз по нашим партнерским ссылкам ниже.

[underverse.su].t20371.torrent
Трекер: Зарегистрирован   [ 05.10.2012 17:43 ]  

Статус: проверено (by garry at 05.10.2012 18:22)
Поблагодарили: 1 человек
Тип торрента: публичный - доступные источники с открытых трекеров: 
Размер: 10,37 GB (занимает 2,37 DVDR, для записи нужно 3 болванки DVDR/RW)
 
 


Последний раз редактировалось: nemos (06.11.2014 12:46), всего редактировалось 3 раз(а)

conspop 

08-Окт-2012 09:32

Смотрел запоем! Игра актеров на высоте. Советую всем кто еще не смотрел.

Яндекс.Метрика powered by Sphinx


В Н И М А Н И Е
Сайт не распространяет и не хранит электронные версии произведений, а лишь бесплатно и без коммерческой выгоды (не требуя взамен платы,
SMS и т.д.) предоставляет доступ к создаваемому пользователями каталогу ссылок на торрент-файлы, которые содержат только списки хеш-сумм.
Убедительная просьба с жалобами обращаться напрямую к пользователю, разместившему торрент файл.

Вверх