Loading...
Error

Средство от смерти / Серии: 01-16 (16) (Александр Муратов) [2012 г., Драма, Криминал, Мелодрама, SATRip]

Статистика раздачи
Размер:  8,44 GB   |    Зарегистрирован:  4 года 1 месяц   |    Скачан:  7 раз

Полного источника не было: 2 года

Сидов:  0  |  0 KB/s  ]   Личеров:  0  |  0 KB/s  ]

* - сиды/пиры с внешних источников

   
 
Автор Сообщение

nemos Пол:Муж

05-Окт-2012 16:19

Средство от смерти


Год выпуска: 2012
Жанр: драма, мелодрама, криминал
Страна: Россия
Режиссер: Александр Муратов
В ролях: Александр Домогаров, Екатерина Олькина, Андрей Ильин, Евгения Добровольская, Олег Масленников-Войтов, Юлия Рутберг, Павел Меленчук, Владимир Еремин, Геннадий Матвеев, Иван Шмаков
Сюжет фильма:
Корреспондент частной газеты Евгения Колесникова получает престижную журналистскую награду — «Серебряное перо» — за серию разоблачительных статей о махинациях с московской недвижимостью. Один из фигурантов дела о недвижимости — чиновник Виталий Мартов — выбрасывается из окна своей квартиры. В тот же день полицейские Назаров и Артемьев находят у погибшего профессионального киллера Борисенко блокнот со списком его будущих жертв.

Качество видео: SatRip

Продолжительность: 00:43:31 х серия
Формат: AVI
Видео: DivX, 720x400, 1 569 kbps
Аудио: русский, MP3 2.0, 128 kbps

Код:

E:\ÑÊÀ×ÊÈ\Ñ underverse\Sredstvo.ot.smerti.2012.DivX.SATRip.Files-x\Sredstvo.ot.smerti.(16.serija).2012.DivX.SATRip.Files-x.avi
   General
      Complete name : E:\ÑÊÀ×ÊÈ\Ñ underverse\Sredstvo.ot.smerti.2012.DivX.SATRip.Files-x\Sredstvo.ot.smerti.(16.serija).2012.DivX.SATRip.Files-x.avi
      Format : AVI
      Format/Info : Audio Video Interleave
      File size : 531 MiB
      Duration : 43mn 31s
      Overall bit rate : 1 707 Kbps
      Writing application : VirtualDubModRus 1.5.10.2 (build 2542/release)
      Writing library : VirtualDubMod build 2542/release
   Video #0
      ID : 0
      Format : MPEG-4 Visual
      Format profile : Simple@L1
      Format settings, BVOP : No
      Format settings, QPel : No
      Format settings, GMC : No warppoints
      Format settings, Matrix : Default (H.263)
      Codec ID : DX50
      Codec ID/Hint : DivX 5
      Duration : 43mn 31s
      Bit rate : 1 569 Kbps
      Width : 720 pixels
      Height : 400 pixels
      Display aspect ratio : 16:9
      Frame rate : 25.000 fps
      Color space : YUV
      Chroma subsampling : 4:2:0
      Bit depth : 8 bits
      Scan type : Progressive
      Compression mode : Lossy
      Bits/(Pixel*Frame) : 0.218
      Stream size : 489 MiB (92%)
      Writing library : Lavc52.58.0
   Audio #1
      ID : 1
      Format : MPEG Audio
      Format version : Version 1
      Format profile : Layer 3
      Mode : Joint stereo
      Mode extension : MS Stereo
      Codec ID : 55
      Codec ID/Hint : MP3
      Duration : 43mn 31s
      Bit rate mode : Constant
      Bit rate : 128 Kbps
      Channel(s) : 2 channels
      Sampling rate : 48.0 KHz
      Compression mode : Lossy
      Stream size : 39.9 MiB (7%)
      Alignment : Split accross interleaves
      Interleave, duration : 40 ms (1.00 video frame)
      Interleave, preload duration : 500 ms
      Writing library : LAME3.98
Семпл: http://multi-up.com/770648

picpicpicpicpicpicpicpicpicpicpicpicpicpicpicpic
Для увеличения картинки щелкните мышкой по превью

Этот торрент недоступен для скачивания без регистрации, однако доступен по публичной magnet-ссылке (источники с публичных трекеров). Перед использованием ссылки прочтите, пожалуйста Пользовательское соглашение, а также как можно дольше оставайтесь на раздаче! Для того, чтобы скачать сам торрент-файл (который видит больше источников), а также для того, чтобы поблагодарить релизера, вам необходимо зарегистрироваться. Если регистрироваться лень - вы можете также попробовать скачать релиз по нашим партнерским ссылкам ниже.

[underverse.su].t20443.torrent
Трекер: Зарегистрирован   [ 09.10.2012 14:50 ]  

Статус: проверено (by Паукан at 09.10.2012 14:58)
Поблагодарили: пока никто не поблагодарил...
Тип торрента: публичный - доступные источники с открытых трекеров: 
Размер: 8,44 GB (занимает 1,93 DVDR, для записи нужно 2 болванки DVDR/RW)
 
 


Последний раз редактировалось: nemos (06.11.2014 12:46), всего редактировалось 2 раз(а)

nemos Пол:Муж

09-Окт-2012 14:52

Обновлена,

Яндекс.Метрика powered by Sphinx


В Н И М А Н И Е
Сайт не распространяет и не хранит электронные версии произведений, а лишь бесплатно и без коммерческой выгоды (не требуя взамен платы,
SMS и т.д.) предоставляет доступ к создаваемому пользователями каталогу ссылок на торрент-файлы, которые содержат только списки хеш-сумм.
Убедительная просьба с жалобами обращаться напрямую к пользователю, разместившему торрент файл.

Вверх