Loading...
Error

Средь бела дня / The Cold Light of Day (Мабрук Эль Мекри) [2012 г., боевик, триллер, BDRip-AVC] Dub + Original

Статистика раздачи
Размер:  2,18 GB   |    Зарегистрирован:  4 года 2 месяца   |    Скачан:  50 раз

Полного источника не было: 16 дней

Сидов:  0  |  0 KB/s  ]   Личеров:  0  |  0 KB/s  ]

* - сиды/пиры с внешних источников

   
 
Автор Сообщение

Garnett Пол:Муж

05-Окт-2012 15:36

Средь бела дня / The Cold Light of Day


Год выпуска: 2012
Жанр: боевик, триллер
Страна: США
Режиссер: Мабрук Эль Мекри
В ролях: Генри Кавилл, Сигурни Уивер, Вероника Эчеги, Рошди Зем, Джозеф Моул, Оскар Хаенада, Кэролайн Гудолл, Брюс Уиллис, Рафи Гаврон, Эмма Хэмилтон
Сюжет фильма:
Испания, море, яхта — отпуск с поднадоевшей молодому Уиллу Шоу компанией родственников… Никто не мог предположить, что уже через несколько часов палуба яхты обагрится кровью, а члены семьи Шоу станут заложниками в руках неизвестных. В поисках родных Уилл невольно узнает о государственном заговоре и раскрывает тайны своего отца. У парня всего несколько часов, чтобы спасти семью и страну от гибели.

  • Мировая премьера: 4 апреля 2012
  • Российская премьера: 23 августа 2012, «Парадиз»

Качество видео: BDRip-AVC

Продолжительность: 01:33:33
Формат: MKV
Видео: x264, 1024x436, 2436 kbps
Аудио #1: русский, дублированный [лицензия], AC3 5.1, 448 kbps
Аудио #2: английский, оригинал, AC3 5.1, 448 kbps
Субтитры: русские, английские (full, SDH), softsub (SRT)

Код:

General
Unique ID : 195544023622674740797724225662325432508 (0x931C68B7C4C7CE4EBEAC30C816F520BC)
Complete name : D:\Sred.bela.dnja.2012.x264.BDRip.(AVC).fanatus.mkv
Format : Matroska
Format version : Version 2
File size : 2.18 GiB
Duration : 1h 33mn
Overall bit rate : 3 332 Kbps
Movie name : The Cold Light of Day (2012) - fanatus
Encoded date : UTC 2012-10-04 19:48:50
Writing application : mkvmerge v3.4.0 ('Rapunzel') сборка от May 15 2010 09:38:20
Writing library : libebml v0.8.0 + libmatroska v0.9.0
Video
ID : 1
Format : AVC
Format/Info : Advanced Video Codec
Format profile : High@L4.1
Format settings, CABAC : Yes
Format settings, ReFrames : 14 frames
Codec ID : V_MPEG4/ISO/AVC
Duration : 1h 33mn
Bit rate : 2 436 Kbps
Width : 1 024 pixels
Height : 436 pixels
Display aspect ratio : 2.35:1
Frame rate : 24.000 fps
Color space : YUV
Chroma subsampling : 4:2:0
Bit depth : 8 bits
Scan type : Progressive
Bits/(Pixel*Frame) : 0.227
Stream size : 1.55 GiB (71%)
Title : The Cold Light of Day (2012)
Writing library : x264 core 128 r2216 198a7ea
Encoding settings : cabac=1 / ref=14 / deblock=1:-3:-3 / analyse=0x3:0x113 / me=umh / subme=11 / psy=1 / psy_rd=1.00:0.15 / mixed_ref=1 / me_range=48 / chroma_me=1 / trellis=2 / 8x8dct=1 / cqm=0 / deadzone=21,11 / fast_pskip=0 / chroma_qp_offset=-3 / threads=16 / lookahead_threads=2 / sliced_threads=0 / nr=0 / decimate=0 / interlaced=0 / bluray_compat=0 / constrained_intra=0 / bframes=16 / b_pyramid=2 / b_adapt=2 / b_bias=0 / direct=3 / weightb=1 / open_gop=0 / weightp=2 / keyint=240 / keyint_min=24 / scenecut=40 / intra_refresh=0 / rc_lookahead=40 / rc=2pass / mbtree=0 / bitrate=2436 / ratetol=1.0 / qcomp=0.70 / qpmin=0 / qpmax=69 / qpstep=4 / cplxblur=20.0 / qblur=0.5 / vbv_maxrate=50000 / vbv_bufsize=50000 / nal_hrd=none / ip_ratio=1.40 / pb_ratio=1.30 / aq=2:0.70
Language : English
Default : Yes
Forced : No
Transfer characteristics : BT.709-5, BT.1361
Audio #1
ID : 2
Format : AC-3
Format/Info : Audio Coding 3
Mode extension : CM (complete main)
Format settings, Endianness : Big
Codec ID : A_AC3
Duration : 1h 33mn
Bit rate mode : Constant
Bit rate : 448 Kbps
Channel(s) : 6 channels
Channel positions : Front: L C R, Side: L R, LFE
Sampling rate : 48.0 KHz
Bit depth : 16 bits
Compression mode : Lossy
Stream size : 300 MiB (13%)
Title : Dub
Language : Russian
Default : Yes
Forced : Yes
Audio #2
ID : 3
Format : AC-3
Format/Info : Audio Coding 3
Mode extension : CM (complete main)
Format settings, Endianness : Big
Codec ID : A_AC3
Duration : 1h 33mn
Bit rate mode : Constant
Bit rate : 448 Kbps
Channel(s) : 6 channels
Channel positions : Front: L C R, Side: L R, LFE
Sampling rate : 48.0 KHz
Bit depth : 16 bits
Compression mode : Lossy
Stream size : 300 MiB (13%)
Title : Original
Language : English
Default : No
Forced : No
Text #1
ID : 4
Format : UTF-8
Codec ID : S_TEXT/UTF8
Codec ID/Info : UTF-8 Plain Text
Language : Russian
Default : No
Forced : No
Text #2
ID : 5
Format : UTF-8
Codec ID : S_TEXT/UTF8
Codec ID/Info : UTF-8 Plain Text
Language : English
Default : No
Forced : No
Text #3
ID : 6
Format : UTF-8
Codec ID : S_TEXT/UTF8
Codec ID/Info : UTF-8 Plain Text
Title : SDH
Language : English
Default : No
Forced : No
Menu
00:00:00.000 : en:00:00:00.000
00:08:41.000 : en:00:08:41.000
00:15:49.833 : en:00:15:49.833
00:22:52.458 : en:00:22:52.458
00:32:26.125 : en:00:32:26.125
00:41:09.583 : en:00:41:09.583
00:51:29.667 : en:00:51:29.667
00:56:48.750 : en:00:56:48.750
01:03:23.333 : en:01:03:23.333
01:11:06.458 : en:01:11:06.458
01:16:06.875 : en:01:16:06.875
01:25:11.375 : en:01:25:11.375
picpicpic
Для увеличения картинки щелкните мышкой по превью

Этот торрент недоступен для скачивания без регистрации, однако доступен по публичной magnet-ссылке (источники с публичных трекеров). Перед использованием ссылки прочтите, пожалуйста Пользовательское соглашение, а также как можно дольше оставайтесь на раздаче! Для того, чтобы скачать сам торрент-файл (который видит больше источников), а также для того, чтобы поблагодарить релизера, вам необходимо зарегистрироваться. Если регистрироваться лень - вы можете также попробовать скачать релиз по нашим партнерским ссылкам ниже.

[underverse.su].t20359.torrent
Трекер: Зарегистрирован   [ 05.10.2012 15:36 ]  

Статус: проверено (by garry at 05.10.2012 16:01)
Поблагодарили: 2 человека
Тип торрента: публичный - доступные источники с открытых трекеров: 
Размер: 2,18 GB (занимает 1/2 DVDR, для записи нужно 1 болванка DVDR/RW)
 
 
Похожие темы
Форум Тема Автор Торрент Отв. Посл. сооб.
Зарубежное кино [DVDRip, Low-Res HDRip, и т.д.] Средь бела дня / The Cold Light of Day (Мабрук Эль Мекри) [2011 г., боевик, триллер, BDRip-AVC] Dub DarkAngel
16 | 2

0 | 525

6

22.09.2012 11:51

Зарубежное кино [DVDRip, Low-Res HDRip, и т.д.] Средь бела дня / The Cold Light of Day (Николас Столлер / Nicholas Stoller) [2012 г., боевик, триллер, HDRip] Dub Garnett
10 | 0

0 | 454

24

22.09.2012 17:40

МИЖГАН75 Пол:Муж

05-Окт-2012 17:49

:beer:

Wohs Пол:Муж

07-Окт-2012 17:16

Можно посмотреть, но Брюс уже не тот :)

Яндекс.Метрика powered by Sphinx


В Н И М А Н И Е
Сайт не распространяет и не хранит электронные версии произведений, а лишь бесплатно и без коммерческой выгоды (не требуя взамен платы,
SMS и т.д.) предоставляет доступ к создаваемому пользователями каталогу ссылок на торрент-файлы, которые содержат только списки хеш-сумм.
Убедительная просьба с жалобами обращаться напрямую к пользователю, разместившему торрент файл.

Вверх