Loading...
Error

Медальон / Stolen (Саймон Уэст) [2012 г., боевик, триллер, BDRip-AVC] Dub

Статистика раздачи
Размер:  1,45 GB   |    Зарегистрирован:  4 года 2 месяца   |    Скачан:  5 раз

Полного источника не было: 10 месяцев

Сидов:  0  |  0 KB/s  ]   Личеров:  0  |  0 KB/s  ]

* - сиды/пиры с внешних источников

   
 
Автор Сообщение

Garnett Пол:Муж

05-Окт-2012 15:05

Медальон / Stolen


Год выпуска: 2012
Жанр: боевик, триллер
Страна: США
Режиссер: Саймон Уэст
В ролях: Николас Кейдж, Джош Лукас, Дэнни Хьюстон, Малин Акерман, Сами Гэйл, М. К. Гейни, Марк Вэлли, Эдрик Браун, Бэрри Шебака Хенли, Дж.Д. Эвермор
Сюжет фильма:
Неизвестные похищают дочь бывшего вора в законе, решившего завязать с темным прошлым. Похитители сообщают, что держат девочку-подростка в багажнике такси. У отца есть всего несколько часов, чтобы отыскать киднепперов и спасти ребенка.

  • Мировая премьера: 6 сентября 2012
  • Российская премьера: 6 сентября 2012, «Парадиз»

Качество видео: BDRip-AVC

Продолжительность: 01:35:50
Формат: MKV
Видео: x264, 800x450, 1781 kbps
Аудио: русский, дублированный [лицензия], AC3 5.1, 384 kbps
Субтитры: русские, английские, SRT

Код:

General
Unique ID : 198262329659981656949821450235585872701 (0x9527EF8D8C7DEF2096104FB48175C33D)
Complete name : D:\Medaljon.2012.x264.BDRip.(AVC).fanatus.mkv
Format : Matroska
Format version : Version 2
File size : 1.45 GiB
Duration : 1h 35mn
Overall bit rate : 2 160 Kbps
Movie name : Stolen (2012) - fanatus
Encoded date : UTC 2012-10-05 00:07:22
Writing application : mkvmerge v3.4.0 ('Rapunzel') сборка от May 15 2010 09:38:20
Writing library : libebml v0.8.0 + libmatroska v0.9.0
Attachment : Yes / Yes
Video
ID : 1
Format : AVC
Format/Info : Advanced Video Codec
Format profile : High@L4.1
Format settings, CABAC : Yes
Format settings, ReFrames : 12 frames
Codec ID : V_MPEG4/ISO/AVC
Duration : 1h 35mn
Bit rate : 1 781 Kbps
Width : 800 pixels
Height : 450 pixels
Display aspect ratio : 16:9
Frame rate : 24.000 fps
Color space : YUV
Chroma subsampling : 4:2:0
Bit depth : 8 bits
Scan type : Progressive
Bits/(Pixel*Frame) : 0.206
Stream size : 1.16 GiB (80%)
Title : Stolen (2012)
Writing library : x264 core 128 r2216 198a7ea
Encoding settings : cabac=1 / ref=12 / deblock=1:-2:-2 / analyse=0x3:0x113 / me=umh / subme=11 / psy=1 / psy_rd=1.05:0.05 / mixed_ref=1 / me_range=48 / chroma_me=1 / trellis=2 / 8x8dct=1 / cqm=0 / deadzone=21,11 / fast_pskip=0 / chroma_qp_offset=-3 / threads=16 / lookahead_threads=2 / sliced_threads=0 / nr=0 / decimate=0 / interlaced=0 / bluray_compat=0 / constrained_intra=0 / bframes=16 / b_pyramid=2 / b_adapt=2 / b_bias=0 / direct=3 / weightb=1 / open_gop=0 / weightp=2 / keyint=240 / keyint_min=24 / scenecut=40 / intra_refresh=0 / rc_lookahead=40 / rc=2pass / mbtree=0 / bitrate=1781 / ratetol=1.0 / qcomp=0.65 / qpmin=0 / qpmax=69 / qpstep=4 / cplxblur=20.0 / qblur=0.5 / vbv_maxrate=50000 / vbv_bufsize=50000 / nal_hrd=none / ip_ratio=1.40 / pb_ratio=1.30 / aq=1:0.95
Language : English
Default : Yes
Forced : No
Transfer characteristics : BT.709-5, BT.1361
Audio
ID : 2
Format : AC-3
Format/Info : Audio Coding 3
Mode extension : CM (complete main)
Format settings, Endianness : Big
Codec ID : A_AC3
Duration : 1h 35mn
Bit rate mode : Constant
Bit rate : 384 Kbps
Channel(s) : 6 channels
Channel positions : Front: L C R, Side: L R, LFE
Sampling rate : 48.0 KHz
Bit depth : 16 bits
Compression mode : Lossy
Stream size : 263 MiB (18%)
Title : Dub
Language : Russian
Default : Yes
Forced : Yes
Text #1
ID : 3
Format : UTF-8
Codec ID : S_TEXT/UTF8
Codec ID/Info : UTF-8 Plain Text
Language : Russian
Default : No
Forced : No
Text #2
ID : 4
Format : UTF-8
Codec ID : S_TEXT/UTF8
Codec ID/Info : UTF-8 Plain Text
Language : English
Default : No
Forced : No
Menu
00:00:00.000 : en:Chapter 01
00:08:38.916 : en:Chapter 02
00:15:28.083 : en:Chapter 03
00:20:24.708 : en:Chapter 04
00:26:46.083 : en:Chapter 05
00:33:46.500 : en:Chapter 06
00:43:51.083 : en:Chapter 07
00:51:12.916 : en:Chapter 08
00:59:44.416 : en:Chapter 09
01:08:38.291 : en:Chapter 10
01:18:27.916 : en:Chapter 11
01:27:07.500 : en:Chapter 12
01:35:49.750 : en:Chapter 13
picpicpic
Для увеличения картинки щелкните мышкой по превью

Этот торрент недоступен для скачивания без регистрации, однако доступен по публичной magnet-ссылке (источники с публичных трекеров). Перед использованием ссылки прочтите, пожалуйста Пользовательское соглашение, а также как можно дольше оставайтесь на раздаче! Для того, чтобы скачать сам торрент-файл (который видит больше источников), а также для того, чтобы поблагодарить релизера, вам необходимо зарегистрироваться. Если регистрироваться лень - вы можете также попробовать скачать релиз по нашим партнерским ссылкам ниже.

[underverse.su].t20354.torrent
Трекер: Зарегистрирован   [ 05.10.2012 15:05 ]  

Статус: проверено (by garry at 05.10.2012 15:55)
Поблагодарили: пока никто не поблагодарил...
Тип торрента: публичный - доступные источники с открытых трекеров: 
Размер: 1,45 GB (занимает 1/3 DVDR, для записи нужно 1 болванка DVDR/RW)
 
 
Похожие темы
Форум Тема Автор Торрент Отв. Посл. сооб.
Зарубежное кино [DVDRip, Low-Res HDRip, и т.д.] Медальон / Stolen (Саймон Уэст) [2012 г., боевик, триллер, DVDRip] Dub ZondeR
0 | 0

3 | 751

42

08.10.2012 04:49

Зарубежное кино [DVDRip, Low-Res HDRip, и т.д.] Медальон / Stolen (Саймон Уэст) [2012 г., боевик, триллер, BDRip] Dub Garnett
11 | 0

2 | 1173

109

08.10.2012 04:44

Зарубежное кино [DVDRip, Low-Res HDRip, и т.д.] Медальон / Stolen (Саймон Уэст) [2012 г., боевик, триллер, драма, BDRip-AVC] Dub + Original Garnett
1 | 0

0 | 819

27

01.11.2012 11:42

Зарубежное кино HQ Медальон / Stolen (Саймон Уэст) [2012 г., боевик, триллер, HDRip] Dub + Original + Sub (Rus) HQ Underverse HQ Underverse
0 | 0

0 | 846

49

10.10.2012 21:32


Яндекс.Метрика powered by Sphinx


В Н И М А Н И Е
Сайт не распространяет и не хранит электронные версии произведений, а лишь бесплатно и без коммерческой выгоды (не требуя взамен платы,
SMS и т.д.) предоставляет доступ к создаваемому пользователями каталогу ссылок на торрент-файлы, которые содержат только списки хеш-сумм.
Убедительная просьба с жалобами обращаться напрямую к пользователю, разместившему торрент файл.

Вверх