Loading...
Error

СБУ. Спецоперация / Серии: 1-8 (8) (Андрей Нестеренко) [2012 г., детектив, SATRip]

Статистика раздачи
Размер:  3,98 GB   |    Зарегистрирован:  4 года 1 месяц   |    Скачан:  13 раз

Полного источника не было: 1 год 1 месяц

Сидов:  0  |  0 KB/s  ]   Личеров:  0  |  0 KB/s  ]

* - сиды/пиры с внешних источников

   
 
Автор Сообщение

nemos Пол:Муж

05-Окт-2012 15:01

СБУ. Спецоперация


Год выпуска: 2012
Жанр: детектив
Страна: Россия
Режиссер: Андрей Нестеренко
В ролях: Александр Суворов, Вячеслав Довженко, Татьяна Коновалова, Олесь КационРоман Лукьянов,
Сюжет фильма:
Сериал-расследование, освещает опасные трудовые будни одной из главных силовых структур украинского государства. В основу каждого сюжета положены события, имевшие место в реальной человеческой жизни.

В роли главных героев выступают именно работники этой спецслужбы, находящейся на страже государственного покоя.


Качество видео: SatRip

Продолжительность: 00:47:25 серия
Формат: AVI
Видео: XviD, 704x396, 1 279 kbps
Аудио: русский, MP3 2.0, 128 kbps

Код:

E:\ÑÊÀ×ÊÈ\Ñ underverse\ÑÁÓ.Ñïåöîïåðàöèÿ__SATRip by volk & UAOnline\08 ñåðèÿ_SATRip by volk & UAOnline.avi
   General
      Complete name : E:\ÑÊÀ×ÊÈ\Ñ underverse\ÑÁÓ.Ñïåöîïåðàöèÿ__SATRip by volk & UAOnline\08 ñåðèÿ_SATRip by volk & UAOnline.avi
      Format : AVI
      Format/Info : Audio Video Interleave
      File size : 481 MiB
      Duration : 47mn 25s
      Overall bit rate : 1 417 Kbps
      Writing application : VirtualDubModRus 1.5.10.2 (build 2542/release)
      Writing library : VirtualDubMod build 2542/release
   Video #0
      ID : 0
      Format : MPEG-4 Visual
      Format profile : Simple@L3
      Format settings, BVOP : No
      Format settings, QPel : No
      Format settings, GMC : No warppoints
      Format settings, Matrix : Default (H.263)
      Codec ID : XVID
      Codec ID/Hint : XviD
      Duration : 47mn 25s
      Bit rate : 1 279 Kbps
      Width : 704 pixels
      Height : 396 pixels
      Display aspect ratio : 1.222
      Original display aspect ratio : 1.85:1
      Frame rate : 25.000 fps
      Color space : YUV
      Chroma subsampling : 4:2:0
      Bit depth : 8 bits
      Scan type : Progressive
      Compression mode : Lossy
      Bits/(Pixel*Frame) : 0.189
      Stream size : 434 MiB (90%)
      Writing library : XviD 1.2.1 (UTC 2008-12-04)
   Audio #1
      ID : 1
      Format : MPEG Audio
      Format version : Version 1
      Format profile : Layer 3
      Mode : Joint stereo
      Mode extension : MS Stereo
      Codec ID : 55
      Codec ID/Hint : MP3
      Duration : 47mn 25s
      Bit rate mode : Constant
      Bit rate : 128 Kbps
      Channel(s) : 2 channels
      Sampling rate : 48.0 KHz
      Compression mode : Lossy
      Stream size : 43.4 MiB (9%)
      Alignment : Split accross interleaves
      Interleave, duration : 40 ms (1.00 video frame)
      Interleave, preload duration : 500 ms
      Writing library : LAME3.98.3
Семпл: http://multi-up.com/770607

picpicpicpicpicpicpicpicpicpicpicpic
Для увеличения картинки щелкните мышкой по превью

Этот торрент недоступен для скачивания без регистрации, однако доступен по публичной magnet-ссылке (источники с публичных трекеров). Перед использованием ссылки прочтите, пожалуйста Пользовательское соглашение, а также как можно дольше оставайтесь на раздаче! Для того, чтобы скачать сам торрент-файл (который видит больше источников), а также для того, чтобы поблагодарить релизера, вам необходимо зарегистрироваться. Если регистрироваться лень - вы можете также попробовать скачать релиз по нашим партнерским ссылкам ниже.

[underverse.su].t20353.torrent
Трекер: Зарегистрирован   [ 05.10.2012 15:01 ]  

Статус: проверено (by garry at 05.10.2012 15:54)
Поблагодарили: 1 человек
Тип торрента: публичный - доступные источники с открытых трекеров: 
Размер: 3,98 GB (занимает 0,91 DVDR, для записи нужно 1 болванка DVDR/RW)
 
 

Яндекс.Метрика powered by Sphinx


В Н И М А Н И Е
Сайт не распространяет и не хранит электронные версии произведений, а лишь бесплатно и без коммерческой выгоды (не требуя взамен платы,
SMS и т.д.) предоставляет доступ к создаваемому пользователями каталогу ссылок на торрент-файлы, которые содержат только списки хеш-сумм.
Убедительная просьба с жалобами обращаться напрямую к пользователю, разместившему торрент файл.

Вверх