Loading...
Error

Беспредел / Autoreiji / Outrage (Такеши Китано) [2010 г., драма, криминал, BDRip] VO

Статистика раздачи
Размер:  2,18 GB   |    Зарегистрирован:  4 года 11 месяцев   |    Скачан:  37 раз

Полного источника не было: 1 год 2 месяца

Сидов:  0  |  0 KB/s  ]   Личеров:  0  |  0 KB/s  ]

* - сиды/пиры с внешних источников

   
 
Автор Сообщение

garry Пол:Муж

05-Окт-2012 12:24

Беспредел / Autoreiji


Год выпуска: 2010
Жанр: драма, криминал
Страна: Япония
Режиссер: Такеши Китано
В ролях: Такеши Китано, Киппэй Сиина, Рё Касэ, Томокадзу Миура, Дзюн Кунимура, Тэтта Сугимото, Такаши Цукамото, Юка Итая, Хидео Накано, Рэндзи Исибаси
Сюжет фильма:
В безжалостной борьбе за власть несколько кланов якудза оспаривают расположение Крестного отца. Главари поднимаются по иерархической лестнице в организации, не пренебрегая заговорами и лживыми клятвами верности. Опытный якудза Отомо наблюдает за развитием карьеры своих товарищей: оставив позади замысловатые татуировки и отрубленные пальцы, они штурмуют мир финансов. В мире коррупции, где царят предательство и месть, ни на минуту не прекращается борьба за достижение вершины или просто за выживание. Это — мир, где героев не существует…

  • Мировая премьера: 17 мая 2010


Качество видео: BDRip

Продолжительность: 01:49:43
Формат: avi
Видео: XviD, 720x304, 1936 kbps
Аудио #1: русский, одноголосый закадровый [любительский, Ю. Сербин], AC3 5.1, 448 kbps
Аудио #2: японский, оригинал, AC3 5.1, 448 kbps

Код:

General
Complete name                    : D:\Video\Movies\Bespredel.2010.DUAL.BDRip.XviD.AC3.-HQCLUB.avi
Format                           : AVI
Format/Info                      : Audio Video Interleave
Format profile                   : OpenDML
File size                        : 2.18 GiB
Duration                         : 1h 49mn
Overall bit rate                 : 2 850 Kbps
Movie name                       : Bespredel.2010.DUAL.BDRip.XviD.AC3.-HQCLUB
Director                         : JoKeR (Blu-ray)
Writing application              : VirtualDubMod 1.5.10.2 (build 2542/release)
Copyright                        : HQCLUB (http://hqclub.net/)
Comment                          : 28.04.2011

Video
ID                               : 0
Format                           : MPEG-4 Visual
Format profile                   : Streaming Video@L1
Format settings, BVOP            : Yes
Format settings, QPel            : No
Format settings, GMC             : No warppoints
Format settings, Matrix          : Custom
Muxing mode                      : Packed bitstream
Codec ID                         : XVID
Codec ID/Hint                    : XviD
Duration                         : 1h 49mn
Bit rate                         : 1 936 Kbps
Width                            : 720 pixels
Height                           : 304 pixels
Display aspect ratio             : 2.35
Frame rate                       : 23.976 fps
Resolution                       : 24 bits
Colorimetry                      : 4:2:0
Scan type                        : Progressive
Bits/(Pixel*Frame)               : 0.369
Stream size                      : 1.48 GiB (68%)
Writing library                  : XviD 62

Audio #1
ID                               : 1
Format                           : AC-3
Format/Info                      : Audio Coding 3
Codec ID                         : 2000
Duration                         : 1h 49mn
Bit rate mode                    : Constant
Bit rate                         : 448 Kbps
Channel(s)                       : 6 channels
Channel positions                : Front: L C R, Surround: L R, LFE
Sampling rate                    : 48.0 KHz
Stream size                      : 352 MiB (16%)
Alignment                        : Split accross interleaves
Interleave, duration             : 42 ms (1.00 video frame)
Interleave, preload duration     : 500 ms

Audio #2
ID                               : 2
Format                           : AC-3
Format/Info                      : Audio Coding 3
Codec ID                         : 2000
Duration                         : 1h 49mn
Bit rate mode                    : Constant
Bit rate                         : 448 Kbps
Channel(s)                       : 6 channels
Channel positions                : Front: L C R, Surround: L R, LFE
Sampling rate                    : 48.0 KHz
Stream size                      : 352 MiB (16%)
Alignment                        : Split accross interleaves
Interleave, duration             : 42 ms (1.00 video frame)
Interleave, preload duration     : 500 ms

Семпл: http://multi-up.com/770539

Релиз группы:

picpicpic
Для увеличения картинки щелкните мышкой по превью

Этот торрент недоступен для скачивания без регистрации, однако доступен по публичной magnet-ссылке (источники с публичных трекеров). Перед использованием ссылки прочтите, пожалуйста Пользовательское соглашение, а также как можно дольше оставайтесь на раздаче! Для того, чтобы скачать сам торрент-файл (который видит больше источников), а также для того, чтобы поблагодарить релизера, вам необходимо зарегистрироваться. Если регистрироваться лень - вы можете также попробовать скачать релиз по нашим партнерским ссылкам ниже.

[underverse.su].t20347.torrent
Трекер: Зарегистрирован   [ 05.10.2012 12:24 ]  

Статус: проверено (by garry at 05.10.2012 12:25)
Поблагодарили: 2 человека
Тип торрента: публичный - доступные источники с открытых трекеров: 
Размер: 2,18 GB (занимает 1/2 DVDR, для записи нужно 1 болванка DVDR/RW)
 
 
Похожие темы
Форум Тема Автор Торрент Отв. Посл. сооб.
Другие фильмы Беспредел полицаев [2012 г., документальный, TVRip] матроскин
0 | 1

1 | 1132

22

12.04.2013 15:03

* Архив Беспредел (Игорь Гостев) [1989 г., Криминал, драма, DVDRip] StormX

2 | 1359

29.08.2010 23:52


Яндекс.Метрика powered by Sphinx


В Н И М А Н И Е
Сайт не распространяет и не хранит электронные версии произведений, а лишь бесплатно и без коммерческой выгоды (не требуя взамен платы,
SMS и т.д.) предоставляет доступ к создаваемому пользователями каталогу ссылок на торрент-файлы, которые содержат только списки хеш-сумм.
Убедительная просьба с жалобами обращаться напрямую к пользователю, разместившему торрент файл.

Вверх