Loading...
Error

Чкалов / Серии: 1-8 (8) (Игорь Зайцев) [2012 г., Драма, История, SATRip]

Статистика раздачи
Размер:  4,75 GB   |    Зарегистрирован:  4 года 1 месяц   |    Скачан:  16 раз

Полного источника не было: 2 года

Сидов:  0  |  0 KB/s  ]   Личеров:  0  |  0 KB/s  ]

* - сиды/пиры с внешних источников

   
 
Автор Сообщение

nemos Пол:Муж

04-Окт-2012 15:32

Чкалов


Год выпуска: 2012
Жанр: Драма, История
Страна: Россия
Режиссер: Игорь Зайцев
В ролях: Евгений Дятлов, Андрей Мерзликин, Светлана Фролова, Мария Гузеева, Олег Лопухов, Максим Литовченко, Виктор Добронравов, Семён Стругачёв, Артем Черненко, Иван Кокорин, Александр Коршунов, Владимир Зайцев, Сергей Тарамаев, Александр Берда, Сергей Беляев, Виктор Тереля, Александр Резалин, Анастасия Макеева, Валерия Дмитриева, Марина Барсукова, Анатолий Зиновенко, Дмитрий Архангельский, Павел Галич
Сюжет фильма: Рассказ о неизвестных страницах из жизни комбрига Валерия Чкалова, чья биография полна тайн, долгие годы тщательно скрывавшихся от глаз и ушей народа, и одновременно — история становления авиации в нашей стране. Начинается повествование с периода учебы Валерия Павловича, а заканчивается его легендарным беспосадочным перелетом из СССР в США в 1937 году.
1 серия:
СССР, 1924 год. Два друга-летчика Валерий Чкалов и Александр Анисимов - лучшие курсанты Серпуховской летной школы. Как талантливые и перспективные, они получают распределение в Ленинградскую Краснознамeнную истребительную эскадрилью. Молодым хулиганам нет равных в небе, однако их дружбу на прочность испытывает знакомство с очаровательной пианисткой Ольгой Ореховой...
2 серия:
Чтобы поразить любимую Олю в день еe рождения - Чкалов пролетает под Троицким мостом. Соперничество за сердце Ольги грозит Чкалову и Анисимову серьезными дисциплинарными взысканиями. Девушка наконец-то делает выбор в пользу Валеры. Однако Чкаловым недолго приходится наслаждаться тихим семейным счастьем - Валерия переводят в Брянскую авиационную эскадрилью.
3 серия:
После произошедшего, приговором военного трибунала Чкалов приговорен к одному году лишения свободы и уволен из Красной Армии. Однако отбывать наказание летчику приходится недолго: благодаря ходатайству своих заступников, менее чем через месяц наказание заменяют на условное. После освобождения из Брянской тюрьмы Валерий знакомится с роковой красоткой Марго…
4 серия:
Черная полоса Чкалова заканчивается: по высокой протекции он восстанавливается в воинском звании и направляется на работу в сверхсекретный Московский научно-исследовательский институт ВВС. Судьба снова сводит Валерия со старым другом Анисимовым. Под руководством опального авиаконструктора Поликарпова Чкалов и Анисимов приступают к испытательным полeтам
5 серия:
Валерия увольняют из Института и снова исключают из рядов Красной Армии. Чкалов полностью переходит в распоряжение Поликарпова. Во время испытания истребителя И-16 возникает внештатная ситуация, однако асу Чкалову удается не допустить трагедию...
6 серия:
После неоправданного геройства во время показательного полета, Чкалова представляют лично Сталину. В беседе Верховный Главнокомандующий ставит жизнь испытателя выше опытного образца самолета. Валерий Павлович становится "звездой", получает новую квартиру. Но самый главный подарок преподносит Ольга – у летчика рождается дочь.

Качество видео: SatRip

Продолжительность: 00:48:52 серия
Формат: AVI
Видео: DivX, 704 x 400, 1500 kbps
Аудио: русский, MPEG, 192 kbps

Код:

E:\ÑÊÀ×ÊÈ\Ñ underverse\×êàëîâ (2012)\×êàëîâ. Ñåðèÿ ¹6 (2012).avi
   General
      Complete name : E:\ÑÊÀ×ÊÈ\Ñ underverse\×êàëîâ (2012)\×êàëîâ. Ñåðèÿ ¹8 (2012).avi
      Format : AVI
      Format/Info : Audio Video Interleave
      File size : 595 MiB
      Duration : 48mn 52s
      Overall bit rate : 1 702 Kbps
      Writing application : VirtualDubModRus 1.5.10.1 (build 2439/release)
      Writing library : VirtualDubMod build 2439/release
   Video #0
      ID : 0
      Format : MPEG-4 Visual
      Format settings, BVOP : 1
      Format settings, QPel : No
      Format settings, GMC : No warppoints
      Format settings, Matrix : Default (H.263)
      Muxing mode : Packed bitstream
      Codec ID : DX50
      Codec ID/Hint : DivX 5
      Duration : 48mn 52s
      Bit rate : 1 500 Kbps
      Width : 704 pixels
      Height : 400 pixels
      Display aspect ratio : 16:9
      Frame rate : 25.000 fps
      Color space : YUV
      Chroma subsampling : 4:2:0
      Bit depth : 8 bits
      Scan type : Progressive
      Compression mode : Lossy
      Bits/(Pixel*Frame) : 0.213
      Stream size : 524 MiB (88%)
      Writing library : DivX 6.8.5 (UTC 2009-08-20)
   Audio #1
      ID : 1
      Format : MPEG Audio
      Format version : Version 1
      Format profile : Layer 2
      Codec ID : 50
      Duration : 48mn 52s
      Bit rate mode : Constant
      Bit rate : 192 Kbps
      Channel(s) : 2 channels
      Sampling rate : 48.0 KHz
      Compression mode : Lossy
      Stream size : 67.1 MiB (11%)
      Alignment : Aligned on interleaves
      Interleave, duration : 40 ms (1.00 video frame)
      Interleave, preload duration : 504 ms
Семпл: http://multi-up.com/770086

picpicpicpicpicpicpicpicpicpicpicpic
Для увеличения картинки щелкните мышкой по превью

Этот торрент недоступен для скачивания без регистрации, однако доступен по публичной magnet-ссылке (источники с публичных трекеров). Перед использованием ссылки прочтите, пожалуйста Пользовательское соглашение, а также как можно дольше оставайтесь на раздаче! Для того, чтобы скачать сам торрент-файл (который видит больше источников), а также для того, чтобы поблагодарить релизера, вам необходимо зарегистрироваться. Если регистрироваться лень - вы можете также попробовать скачать релиз по нашим партнерским ссылкам ниже.

[underverse.su].t20330.torrent
Трекер: Зарегистрирован   [ 04.10.2012 16:45 ]  

Статус: проверено (by garry at 04.10.2012 16:55)
Поблагодарили: пока никто не поблагодарил...
Тип торрента: публичный - доступные источники с открытых трекеров: 
Размер: 4,75 GB (занимает 1,09 DVDR, для записи нужно 2 болванки DVDR/RW)
 
 

nemos Пол:Муж

04-Окт-2012 16:50

Обновлена

Яндекс.Метрика powered by Sphinx


В Н И М А Н И Е
Сайт не распространяет и не хранит электронные версии произведений, а лишь бесплатно и без коммерческой выгоды (не требуя взамен платы,
SMS и т.д.) предоставляет доступ к создаваемому пользователями каталогу ссылок на торрент-файлы, которые содержат только списки хеш-сумм.
Убедительная просьба с жалобами обращаться напрямую к пользователю, разместившему торрент файл.

Вверх