Loading...
Error

Динамо: Невероятный иллюзионист / Dynamo: Magician Impossible (1 сезон/4 из 4) [2012 г., Шоу, фокусы, SatRip] VO (НТВ+)

Статистика раздачи
Размер:  2,42 GB   |    Зарегистрирован:  4 года 2 месяца   |    Скачан:  47 раз

Полного источника не было: 6 месяцев

Сидов:  0  |  0 KB/s  ]   Личеров:  0  |  0 KB/s  ]

* - сиды/пиры с внешних источников

   
 
Автор Сообщение

ZondeR Пол:Муж

02-Окт-2012 18:47

Динамо: Невероятный иллюзионист / Dynamo: Magician Impossible


Год выпуска: 2012
Жанр: Шоу, фокусы
Страна: Великобритания

Сюжет фильма:
Вы верите в чудеса? Тогда новая программа Discovery Channel «Динамо: невероятный иллюзионист» предназначена именно для вас: трюки, которые устраивает британский фокусник Динамо, сложно объяснить одной лишь ловкостью рук. Иллюзионист покажет свои самые захватывающие номера. Вы увидите, как снег со склонов австрийских гор превращается в бриллианты, как крылья бабочки становятся зеленым древесным листом, как монета проникает сквозь стекло, как мобильный телефон необъяснимым образом оказывается внутри стеклянной бутылки с узким горлышком и как артист демонстрирует чудеса левитации, уподобляясь Нео из фильма «Матрица». Ассистентами Динамо станут мировые знаменитости, в том числе легенда рок-музыки Иэн Браун.
Доп. информация: В этой раздаче 4 серии, запись сделана
с телеканала НТВ+ (Discovery)
. 08.04.2012!!!

Новые серии Динамо: Невероятный иллюзионист c 07.10.2012 на Discovery Channel, по воскресеньям.
Качество видео: SatRip
Продолжительность: 00:42:36
Формат: avi
Видео: XviD, 640x360, 1900 kbps
Аудио: русский, одноголосый закадровый [профессиональный] (НТВ+), MP3 2.0, 128 kbps

Код:

General
Complete name                    : E:\Квин\Динамо. Иллюзионист\01.avi
Format                           : AVI
Format/Info                      : Audio Video Interleave
File size                        : 621 MiB
Duration                         : 42mn 36s
Overall bit rate                 : 2 038 Kbps
Writing application              : VirtualDubMod 1.5.10.3 | www.virtualdub-fr.org || (build 2550/release)
Writing library                  : VirtualDubMod build 2550/release

Video
ID                               : 0
Format                           : MPEG-4 Visual
Format profile                   : Streaming Video@L1
Format settings, BVOP            : Yes
Format settings, QPel            : No
Format settings, GMC             : No warppoints
Format settings, Matrix          : Default (MPEG)
Codec ID                         : XVID
Codec ID/Hint                    : XviD
Duration                         : 42mn 36s
Bit rate                         : 1 901 Kbps
Width                            : 640 pixels
Height                           : 360 pixels
Display aspect ratio             : 16/9
Frame rate                       : 25.000 fps
Resolution                       : 24 bits
Colorimetry                      : 4:2:0
Scan type                        : Progressive
Bits/(Pixel*Frame)               : 0.330
Stream size                      : 579 MiB (93%)
Writing library                  : XviD 1.2.1 (UTC 2008-12-04)

Audio
ID                               : 1
Format                           : MPEG Audio
Format version                   : Version 1
Format profile                   : Layer 3
Codec ID                         : 55
Codec ID/Hint                    : MP3
Duration                         : 42mn 35s
Bit rate mode                    : Constant
Bit rate                         : 128 Kbps
Channel(s)                       : 2 channels
Sampling rate                    : 48.0 KHz
Resolution                       : 16 bits
Stream size                      : 39.0 MiB (6%)
Alignment                        : Aligned on interleaves
Interleave, duration             : 40 ms (1.00 video frame)
Interleave, preload duration     : 504 ms
Writing library                  : LAME3.98r
Encoding settings                : -m s -V 4 -q 2 -lowpass 17 -b 128

picpicpic
Для увеличения картинки щелкните мышкой по превью

Этот торрент недоступен для скачивания без регистрации, однако доступен по публичной magnet-ссылке (источники с публичных трекеров). Перед использованием ссылки прочтите, пожалуйста Пользовательское соглашение, а также как можно дольше оставайтесь на раздаче! Для того, чтобы скачать сам торрент-файл (который видит больше источников), а также для того, чтобы поблагодарить релизера, вам необходимо зарегистрироваться. Если регистрироваться лень - вы можете также попробовать скачать релиз по нашим партнерским ссылкам ниже.

[underverse.su].t20306.torrent
Трекер: Зарегистрирован   [ 02.10.2012 18:47 ]  

Статус: проверено (by ZondeR at 03.10.2012 09:09)
Поблагодарили: 2 человека
Тип торрента: публичный - доступные источники с открытых трекеров: 
Размер: 2,42 GB (занимает 0,55 DVDR, для записи нужно 1 болванка DVDR/RW)
 
 
Похожие темы
Форум Тема Автор Торрент Отв. Посл. сооб.
Discovery Динамо: Невероятный иллюзионист / Dynamo: Magician Impossible (2 сезон / 4 из 4) [2012 г., Шоу, фокусы, SatRip] VO (НТВ+) ZondeR
0 | 0

1 | 2143

19

28.10.2012 20:02

Discovery Динамо: Невероятный иллюзионист / Dynamo: Magician Impossible (3 сезон / 4 из 4) [2013 г., Шоу, фокусы, IPTVRip] ZondeR
0 | 0

1 | 2089

11

21.10.2013 09:06

Discovery Динамо: Невероятный иллюзионист / Dynamo: Magician Impossible (4 сезон / 4 из 4) [2014 г., Шоу, фокусы, HDTVRip] ZondeR
5 | 1

0 | 1005

18

02.12.2014 16:13



Последний раз редактировалось: ZondeR (28.10.2012 20:08), всего редактировалось 2 раз(а)

theatre Пол:Муж

03-Окт-2012 02:53

Динамо, от слова "динамить"))

ZondeR Пол:Муж

03-Окт-2012 09:10

theatre писал(а):

Динамо, от слова "динамить"))
Вполне возможно, судя по тому что вытворяет :D

Jimmy Пол:Муж

04-Окт-2012 16:40

Интересненько :) Забрал

theatre Пол:Муж

04-Окт-2012 18:33

ну так то жесть, видимо все подстроено, иначе мне не объяснить то, что он вытворяет)))

Яндекс.Метрика powered by Sphinx


В Н И М А Н И Е
Сайт не распространяет и не хранит электронные версии произведений, а лишь бесплатно и без коммерческой выгоды (не требуя взамен платы,
SMS и т.д.) предоставляет доступ к создаваемому пользователями каталогу ссылок на торрент-файлы, которые содержат только списки хеш-сумм.
Убедительная просьба с жалобами обращаться напрямую к пользователю, разместившему торрент файл.

Вверх