Loading...
Error

Эврика / Eureka / Season 1-5 (1-76 серии) (Майк Рол, Эрик Ланёвилль, Крис Фишер) [2006-2012 г., фантастика, драма, комедия, HDTVRip] MVO

Статистика раздачи
Размер:  31,43 GB   |    Зарегистрирован:  4 года 2 месяца   |    Скачан:  0 раз

Полного источника не было: 10 месяцев

Сидов:  0  |  0 KB/s  ]   Личеров:  0  |  0 KB/s  ]

* - сиды/пиры с внешних источников

   
 
Автор Сообщение

laryana Пол:Жен

02-Окт-2012 14:12

Эврика / Eureka / Season 1-5 (1-76 серии)


Год выпуска: 2006 (5 сезонов)
Жанр: фантастика, драма, комедия
Страна: США
Режиссер: Майк Рол, Эрик Ланёвилль, Крис Фишер
В ролях: Колин Фергюсон, Салли Ричардсон-Уитфилд, Эрика Серра, Нил Грэйстон, Джо Мортон, Крис Готье, Джордан Хинсон, Найолл Мэттер, Эд Куинн, Темби Лок
Сюжет фильма:
Поскольку Вторая Мировая Война закончилась уничтожением Хиросимы и Нагасаки, наука и изобретения стали приоритетными во всем мире. Америка чуть не проиграла гонку с атомными бомбами; это не должно повториться.

С помощью Альберта Эйнштейна и других доверенных советников, Президент Гарри С. Труман уполномочил начать заселение удаленной области Тихоокеанского Северо-запада, чтобы сохранить интеллектуальные ценности Америки. Там величайшие умы, вундеркинды, были бы в состоянии жить и работать в благосклонной окружающей среде. Лучшие архитекторы и планировщики были уполномочены построить такое место для этих превосходных гениев, где бы они жили и имели лучшее образование для своих детей, лучшую систему здравоохранения, все для комфортного проживания жизни. Это общество жило бы так же, как все, но с небольшим различием: этот город не обозначен ни на одной карте. О нем никто не знает, кроме Пентагона.

Так появился город Эврика. Но в этом маленьком городе все совсем не так, как в других маленьких городах. Большинство «квантовых прыжков» в науке и технике в течение 50 лет было произведено именно элитными исследователями из Эврики. К сожалению, научные исследования всегда непредсказуемы, и годы экспериментов привели к некоторым побочным явлениям.

От невостребованной любви до профессиональной ревности, от склонности до депрессии, проблемы горожан Эвреки увеличиваются с каждым днем. Но с уникальными талантами населения и безграничными ресурсами, эти провинциальные проблемы могут стать большими проблемами. Именно там, где человеческая непрочность и супернаука сталкиваются, Эврика, начинается…


Качество видео: HDTVRip, WEB-DLRip

Продолжительность: 00:41:00 х 76

Формат: AVI

Видео:
1 сезон
Качество: HDTV-Rip
Видео: 608x336 (1.81:1), 25 fps, XviD 1.2 beta 1 (build 43) ~1027 kbps avg, 0.20 bit/pixel
2 сезон
Качество: TV-Rip
Видео: 624x352 (1.77:1), 23.976 fps, XviD MPEG-4 ~1037 kbps avg, 0.20 bit/pixel
3 сезон
Качество: HDTV-Rip
Видео: 624x352 (1.77:1), 23.976 fps, XviD MPEG-4 ~964 kbps avg, 0.18 bit/pixel
4 сезон
Качество: WEB-DLRip
Видео: 624x352 (1.77:1), 23.976 fps, XviD build 50 ~1106 kbps avg, 0.21 bit/pixel
5 сезон
Качество: WEB-DLRip
Видео: 720x400 (1.80:1), 23.976 fps, XviD MPEG-4 ~1563 kbps avg, 0.23 bit/pixel

Аудио: русский, многоголосый закадровый [профессиональный, LostFilm]
1 сезон
Аудио: 48 kHz, MPEG Layer 3, 2 ch, ~128.00 kbps avg
2 сезон
Аудио: 48 kHz, MPEG Layer 3, 2 ch, ~128.00 kbps avg
3 сезон
Аудио: 48 kHz, MPEG Layer 3, 2 ch, ~128.00 kbps avg
4 сезон
Аудио: 48 kHz, MPEG Layer 3, 2 ch, ~192.00 kbps avg
5 сезон
Аудио: 48 kHz, MPEG Layer 3, 2 ch, ~187.74 kbps avg

Код:

Формат                                   : AVI
Формат/Информация                        : Audio Video Interleave
Размер файла                             : 701 Мбайт
Продолжительность                        : 1 ч. 22 м.
Общий поток                              : 1184 Кбит/сек
Программа кодирования                    : Nandub v1.0rc2
Библиотека кодирования                   : Nandub build 1853/release

Видео
Идентификатор                            : 0
Формат                                   : MPEG-4 Visual
Профиль формата                          : Advanced Simple@L5
Параметр BVOP формата                    : 2
Параметр QPel формата                    : Нет
Параметр GMC формата                     : Без точки перехода
Параметр матрицы формата                 : Default (H.263)
Идентификатор кодека                     : XVID
Идентификатор кодека/Подсказка           : XviD
Продолжительность                        : 1 ч. 22 м.
Битрейт                                  : 1043 Кбит/сек
Ширина                                   : 608 пикселей
Высота                                   : 336 пикселей
Соотношение сторон                       : 16:9
Частота кадров                           : 23,976 кадра/сек
Цветовое пространство                    : YUV
Субдискретизация насыщенности            : 4:2:0
Битовая глубина                          : 8 бит
Тип развёртки                            : Прогрессивная
Метод сжатия                             : С потерями
Бит/(Пиксели*Кадры)                      : 0.213
Размер потока                            : 618 Мбайт (88%)
Библиотека кодирования                   : XviD 1.2.0SMP (UTC 2006-01-08)

Аудио
Идентификатор                            : 1
Формат                                   : MPEG Audio
Версия формата                           : Version 1
Профиль формата                          : Layer 3
Режим                                    : Joint stereo
Расширение режима                        : MS Stereo
Идентификатор кодека                     : 55
Идентификатор кодека/Подсказка           : MP3
Продолжительность                        : 1 ч. 22 м.
Вид битрейта                             : Постоянный
Битрейт                                  : 128 Кбит/сек
Каналы                                   : 2 канала
Частота                                  : 48,0 КГц
Метод сжатия                             : С потерями
Размер потока                            : 75,8 Мбайт (11%)
Выравнивание                             : Соединение по промежуткам
Продолжительность промежутка             : 24  мс. (0,58 видеокадр)
Время предзагрузки промежутка            : 480  мс.
Релиз группы:

picpicpic
Для увеличения картинки щелкните мышкой по превью

Этот торрент недоступен для скачивания без регистрации, однако доступен по публичной magnet-ссылке (источники с публичных трекеров). Перед использованием ссылки прочтите, пожалуйста Пользовательское соглашение, а также как можно дольше оставайтесь на раздаче! Для того, чтобы скачать сам торрент-файл (который видит больше источников), а также для того, чтобы поблагодарить релизера, вам необходимо зарегистрироваться. Если регистрироваться лень - вы можете также попробовать скачать релиз по нашим партнерским ссылкам ниже.

[underverse.su].t20302.torrent
Трекер: Зарегистрирован   [ 02.10.2012 14:12 ]  

Статус: проверено (by garry at 02.10.2012 15:53)
Поблагодарили: пока никто не поблагодарил...
Тип торрента: публичный - доступные источники с открытых трекеров: 
Размер: 31,43 GB (занимает 7,18 DVDR, для записи нужно 8 болванок DVDR/RW)
 
 

Яндекс.Метрика powered by Sphinx


В Н И М А Н И Е
Сайт не распространяет и не хранит электронные версии произведений, а лишь бесплатно и без коммерческой выгоды (не требуя взамен платы,
SMS и т.д.) предоставляет доступ к создаваемому пользователями каталогу ссылок на торрент-файлы, которые содержат только списки хеш-сумм.
Убедительная просьба с жалобами обращаться напрямую к пользователю, разместившему торрент файл.

Вверх