Loading...
Error

Луч на повороте / Серии: 1-2 (2) (Сергей Комаров) [2012 г., Криминал, Боевик, DVBRip]

Статистика раздачи
Размер:  973 MB   |    Зарегистрирован:  4 года 2 месяца   |    Скачан:  15 раз

Полного источника не было: 2 года

Сидов:  0  |  0 KB/s  ]   Личеров:  0  |  0 KB/s  ]

* - сиды/пиры с внешних источников

   
 
Автор Сообщение

nemos Пол:Муж

02-Окт-2012 06:36



Год выпуска: 2012
Жанр: Криминал, Боевик
Страна: Россия
Режиссер: Сергей Комаров
В ролях: Владимир Яглыч, Василий Малов, Анна Назарова, Тимофей Трибунцев, Марина Голуб, Дмитрий Лавров, Константин СилаковРоман Хан,
Молодой парень, обучающийся в консерватории на оперного певца, по ошибке попадает в тюрьму. Его кумир — Лучано Паваротти, но сокамерники, не разбирающиеся в классической музыке, услышали вместо имени «луч на повороте». Так к герою и привязалась кличка — Луч.


Качество видео: DVBRip

Продолжительность: ~00:45:00 х 2
Формат: AVI
Видео: XviD, 720x400, 1 371 kbps
Аудио: русский, MP3 2.0, 128 kbps

Код:

E:\ÑÊÀ×ÊÈ\Ñ underverse\Ëó÷ íà ïîâîðîòå.2012\Ëó÷ íà ïîâîðîòå. 2.avi
   General
      Complete name : E:\ÑÊÀ×ÊÈ\Ñ underverse\Ëó÷ íà ïîâîðîòå.2012\Ëó÷ íà ïîâîðîòå. 2.avi
      Format : AVI
      Format/Info : Audio Video Interleave
      File size : 496 MiB
      Duration : 45mn 56s
      Overall bit rate : 1 509 Kbps
      Writing application : VirtualDubMod 1.5.10.3 | www.virtualdub-fr.org || (build 2550/release)
      Writing library : VirtualDubMod build 2550/release
   Video #0
      ID : 0
      Format : MPEG-4 Visual
      Format profile : Advanced Simple@L5
      Format settings, BVOP : 2
      Format settings, QPel : No
      Format settings, GMC : No warppoints
      Format settings, Matrix : Default (MPEG)
      Codec ID : XVID
      Codec ID/Hint : XviD
      Duration : 45mn 56s
      Bit rate : 1 371 Kbps
      Width : 720 pixels
      Height : 400 pixels
      Display aspect ratio : 16:9
      Frame rate : 25.000 fps
      Color space : YUV
      Chroma subsampling : 4:2:0
      Bit depth : 8 bits
      Scan type : Progressive
      Compression mode : Lossy
      Bits/(Pixel*Frame) : 0.190
      Stream size : 450 MiB (91%)
      Writing library : XviD 1.2.1 (UTC 2008-12-04)
   Audio #1
      ID : 1
      Format : MPEG Audio
      Format version : Version 1
      Format profile : Layer 3
      Codec ID : 55
      Codec ID/Hint : MP3
      Duration : 45mn 56s
      Bit rate mode : Constant
      Bit rate : 128 Kbps
      Channel(s) : 2 channels
      Sampling rate : 48.0 KHz
      Compression mode : Lossy
      Stream size : 42.1 MiB (8%)
      Alignment : Aligned on interleaves
      Interleave, duration : 40 ms (1.00 video frame)
      Interleave, preload duration : 504 ms
      Writing library : LAME3.98r
      Encoding settings : -m s -V 4 -q 2 -lowpass 17 -b 128
Семпл: http://multi-up.com/768734

picpicpicpicpicpicpicpicpicpic
Для увеличения картинки щелкните мышкой по превью

Этот торрент недоступен для скачивания без регистрации, однако доступен по публичной magnet-ссылке (источники с публичных трекеров). Перед использованием ссылки прочтите, пожалуйста Пользовательское соглашение, а также как можно дольше оставайтесь на раздаче! Для того, чтобы скачать сам торрент-файл (который видит больше источников), а также для того, чтобы поблагодарить релизера, вам необходимо зарегистрироваться. Если регистрироваться лень - вы можете также попробовать скачать релиз по нашим партнерским ссылкам ниже.

[underverse.su].t20299.torrent
Трекер: Зарегистрирован   [ 02.10.2012 06:36 ]  

Статус: проверено (by garry at 02.10.2012 14:16)
Поблагодарили: пока никто не поблагодарил...
Тип торрента: публичный - доступные источники с открытых трекеров: 
Размер: 973 MB (занимает 0,22 DVDR, для записи нужно 1 болванка DVDR/RW)
 
 


Последний раз редактировалось: nemos (30.12.2012 20:25), всего редактировалось 3 раз(а)

garry Пол:Муж

02-Окт-2012 08:42

Цитата:

Луч на повороте/Серии:1-2из2[ Сергей Комаров ] (2012г,Криминал, Боевик,DVDRip)[ТВ]
вот что это за заголовок такой?? "скопировал\вставил" называется :evil:
неужели нельзя посмотреть каким должен быть заголовок на примере предыдущих раздач? уже надоело исправлять!

Цитата:

Качество видео: DVDRip
это DVBRip

Паукан Пол:Муж

02-Окт-2012 10:19

И какого лешего оно забыло в "Movies In Original Language"? :shock:

02-Окт-2012 10:20

Топик был перенесен из форума TV Series в форум xUSSR сериалы


dj_maxx
 

ZondeR Пол:Муж

02-Окт-2012 11:37

dj_maxx писал(а):

И какого лешего оно забыло в "Movies In Original Language"?
Потому что, на оригинальном Русском языке :lol:

Яндекс.Метрика powered by Sphinx


В Н И М А Н И Е
Сайт не распространяет и не хранит электронные версии произведений, а лишь бесплатно и без коммерческой выгоды (не требуя взамен платы,
SMS и т.д.) предоставляет доступ к создаваемому пользователями каталогу ссылок на торрент-файлы, которые содержат только списки хеш-сумм.
Убедительная просьба с жалобами обращаться напрямую к пользователю, разместившему торрент файл.

Вверх