Loading...
Error

Кровавый четверг / Thursday (Скип Вудс) [1998 г., боевик, триллер, драма, криминал, DVDRip] MVO + VO

Статистика раздачи
Размер:  2,18 GB   |    Зарегистрирован:  4 года 2 месяца   |    Скачан:  13 раз

Полного источника не было: 9 месяцев

Сидов:  0  |  0 KB/s  ]   Личеров:  0  |  0 KB/s  ]

* - сиды/пиры с внешних источников

   
 
Автор Сообщение

garry Пол:Муж

01-Окт-2012 19:47

Кровавый четверг / Thursday


Год выпуска: 1998
Жанр: боевик, триллер, драма, криминал
Страна: США
Режиссер: Скип Вудс
В ролях: Томас Джейн, Аарон Экхарт, Паулина Поризкова, Джеймс ЛеГро, Пола Маршалл, Майкл Джитер, Гленн Пламмер, Микки Рурк, Люк Хари, Бари К. Уиллерфорд
Сюжет фильма:
Бывший торговец наркотиками, прошедший через все круги ада, решает выйти на пенсию и забыть о своем темном прошлом. Переехав из Лос-Анджелеса в Хьюстон, он резко меняет свой имидж, и в глазах окружающих становится обыкновенным гражданином, которого трудно заподозрить в чем-либо криминальном. Однако, судьба готовит очередной, самый неожиданный сюрприз бывшему наркодилеру. В город приезжает его подельник с грузом героина. Компаньон и не думал забывать о своем партнере все то время, пока тот строил свою новую жизнь. Он предлагает ему последнюю сделку. За все однажды приходится платить и бывший наркоделец оказывается на волосок от смерти.

  • Мировая премьера: 10 сентября 1998


Качество видео: DVDRip

Продолжительность: 01:24:11
Формат: avi
Видео: XviD, 720x384, 2351 kbps
Аудио #1: русский, одноголосый закадровый [любительский, Goblin, версия 2009 г.], AC3 5.1, 448 kbps
Аудио #2: русский, многоголосый закадровый [профессиональный], AC3 5.0, 448 kbps
Аудио #3: английский, оригинал, AC3 5.0, 448 kbps

Код:

General
Complete name                    : D:\Video\Movies\Thursday.1998.DVDRip.avi
Format                           : AVI
Format/Info                      : Audio Video Interleave
Format profile                   : OpenDML
File size                        : 2.18 GiB
Duration                         : 1h 24mn
Overall bit rate                 : 3 709 Kbps
Movie name                       : Кровавый четверг / Thursday (1998)
Director                         : MaLLIeHbKa
Writing application              : VirtualDubMod 1.5.10.2 (build 2540/release)
Writing library                  : VirtualDubMod build 2540/release
Copyright                        : *другой трекер*
Comment                          : 15.06.2008

Video
ID                               : 0
Format                           : MPEG-4 Visual
Format profile                   : Streaming Video@L1
Format settings, BVOP            : Yes
Format settings, QPel            : No
Format settings, GMC             : No warppoints
Format settings, Matrix          : Default (H.263)
Codec ID                         : XVID
Codec ID/Hint                    : XviD
Duration                         : 1h 24mn
Bit rate                         : 2 352 Kbps
Width                            : 720 pixels
Height                           : 384 pixels
Display aspect ratio             : 1.875
Frame rate                       : 25.000 fps
Resolution                       : 24 bits
Colorimetry                      : 4:2:0
Scan type                        : Progressive
Bits/(Pixel*Frame)               : 0.340
Stream size                      : 1.38 GiB (63%)
Writing library                  : XviD 1.2.0.dev47 (UTC 2006-11-01)

Audio #1
ID                               : 1
Format                           : AC-3
Format/Info                      : Audio Coding 3
Codec ID                         : 2000
Duration                         : 1h 22mn
Bit rate mode                    : Constant
Bit rate                         : 448 Kbps
Channel(s)                       : 6 channels
Channel positions                : Front: L C R, Surround: L R, LFE
Sampling rate                    : 48.0 KHz
Video delay                      : 10s 0ms
Stream size                      : 263 MiB (12%)
Alignment                        : Split accross interleaves
Interleave, duration             : 41 ms (1.02 video frame)
Interleave, preload duration     : 500 ms

Audio #2
ID                               : 2
Format                           : AC-3
Format/Info                      : Audio Coding 3
Codec ID                         : 2000
Duration                         : 1h 24mn
Bit rate mode                    : Constant
Bit rate                         : 448 Kbps
Channel(s)                       : 5 channels
Channel positions                : Front: L C R, Surround: L R
Sampling rate                    : 48.0 KHz
Video delay                      : 10s 0ms
Stream size                      : 270 MiB (12%)
Alignment                        : Split accross interleaves
Interleave, duration             : 40 ms (1.00 video frame)
Interleave, preload duration     : 500 ms

Audio #3
ID                               : 3
Format                           : AC-3
Format/Info                      : Audio Coding 3
Codec ID                         : 2000
Duration                         : 1h 24mn
Bit rate mode                    : Constant
Bit rate                         : 448 Kbps
Channel(s)                       : 5 channels
Channel positions                : Front: L C R, Surround: L R
Sampling rate                    : 48.0 KHz
Video delay                      : 10s 0ms
Stream size                      : 270 MiB (12%)
Alignment                        : Split accross interleaves
Interleave, duration             : 40 ms (1.00 video frame)
Interleave, preload duration     : 500 ms

picpicpic
Для увеличения картинки щелкните мышкой по превью

Этот торрент недоступен для скачивания без регистрации, однако доступен по публичной magnet-ссылке (источники с публичных трекеров). Перед использованием ссылки прочтите, пожалуйста Пользовательское соглашение, а также как можно дольше оставайтесь на раздаче! Для того, чтобы скачать сам торрент-файл (который видит больше источников), а также для того, чтобы поблагодарить релизера, вам необходимо зарегистрироваться. Если регистрироваться лень - вы можете также попробовать скачать релиз по нашим партнерским ссылкам ниже.

[underverse.su].t20294.torrent
Трекер: Зарегистрирован   [ 01.10.2012 19:47 ]  

Статус: проверено (by garry at 01.10.2012 19:49)
Поблагодарили: пока никто не поблагодарил...
Тип торрента: публичный - доступные источники с открытых трекеров: 
Размер: 2,18 GB (занимает 1/2 DVDR, для записи нужно 1 болванка DVDR/RW)
 
 
Похожие темы
Форум Тема Автор Торрент Отв. Посл. сооб.
Зарубежное кино [DVDRip, Low-Res HDRip, и т.д.] Кровавый четверг / Thursday (Скип Вудс) [1998 г., боевик, триллер, драма, криминал, DVDRip] LAMA
0 | 0

5 | 518

0

30.09.2011 05:50

Зарубежное кино [DVDRip, Low-Res HDRip, и т.д.] Кровавый четверг / Thursday (Скип Вудс / Skip Woods) [1998 г., боевик, триллер, драма, криминал, BDRip-AVC] MVO + Original + Sub (Rus, Eng) 90ytr90
12 | 0

2 | 209

2

02.01.2014 14:32

Зарубежное кино [DVDRip, Low-Res HDRip, и т.д.] Кровавый четверг / Thursday (Скип Вудс / Skip Woods) [1998 г., боевик, триллер, драма, криминал, BDRip] MVO (НТВ+) 90ytr90
12 | 1

0 | 223

8

02.01.2014 12:31

torrent-bend 

06-Окт-2012 13:32

Хорошее кино

Яндекс.Метрика powered by Sphinx


В Н И М А Н И Е
Сайт не распространяет и не хранит электронные версии произведений, а лишь бесплатно и без коммерческой выгоды (не требуя взамен платы,
SMS и т.д.) предоставляет доступ к создаваемому пользователями каталогу ссылок на торрент-файлы, которые содержат только списки хеш-сумм.
Убедительная просьба с жалобами обращаться напрямую к пользователю, разместившему торрент файл.

Вверх