Loading...
Error

Карпов / Серии: 1-32 (32)(Игорь Ромащенко, Иван Щёголев) [2012 г., Детектив, Криминал, SATRip]

Статистика раздачи
Размер:  17,84 GB   |    Зарегистрирован:  4 года 1 месяц   |    Скачан:  3 раза

Полного источника не было: 2 года

Сидов:  0  |  0 KB/s  ]   Личеров:  0  |  0 KB/s  ]

* - сиды/пиры с внешних источников

   
 
Автор Сообщение

nemos Пол:Муж

01-Окт-2012 18:15



Год выпуска: 2012
Жанр: драма, криминал
Страна: Россия
Режиссер: Игорь Ромащенко, Иван Щёголев
В ролях: Владислав Котлярский, Степан Рожнов, Юлия Майборода, Максим Щеголев, Николай Козак, Анна Михайловская, Дмитрий Блажко, Виктория Тарасова, Дмитрий Мазуров, Сергей Карленков
Сюжет фильма:
О дальнейшей судьбе бывшего подполковника милиции Стаса Карпова. Освободившись после принудительного лечения, Карпов оказывается «у разбитого корыта». Не осталось ничего из того, чего он так долго добивался: ни денег, ни положения, ни власти. Бывшему менту выписан волчий билет, в полицию он не попадет даже на самую мелкую должность. Пытаясь хоть как-то прокормить себя, Карпов устраивается работать охранником на склад. Он смотрит на мир трезвыми глазами, не задурманенными властью. Однажды он видит объявление о вознаграждении за розыск преступника и понимает, что помнит того по старым делам, и может разыскать его…


Качество видео: SatRip

Продолжительность: 00:47:27 серия
Формат: AVI
Видео: XviD, 720 x 400, 1640 kbps
Аудио: русский, MP3 2.0, 128 kbps

Код:

E:\ÑÊÀ×ÊÈ\Ñ underverse\Êàðïîâ (2012)\Êàðïîâ. Ñåðèÿ ¹32 (2012).avi
   General
      Complete name : E:\ÑÊÀ×ÊÈ\Ñ underverse\Êàðïîâ (2012)\Êàðïîâ. Ñåðèÿ ¹32 (2012).avi
      Format : AVI
      Format/Info : Audio Video Interleave
      File size : 603 MiB
      Duration : 47mn 27s
      Overall bit rate : 1 778 Kbps
      Writing application : VirtualDubModRus 1.5.10.2 (build 2542/release)
      Writing library : VirtualDubMod build 2542/release
   Video #0
      ID : 0
      Format : MPEG-4 Visual
      Format profile : Advanced Simple@L5
      Format settings, BVOP : 2
      Format settings, QPel : No
      Format settings, GMC : No warppoints
      Format settings, Matrix : Default (H.263)
      Muxing mode : Packed bitstream
      Codec ID : XVID
      Codec ID/Hint : XviD
      Duration : 47mn 27s
      Bit rate : 1 640 Kbps
      Width : 720 pixels
      Height : 400 pixels
      Display aspect ratio : 16:9
      Frame rate : 25.000 fps
      Color space : YUV
      Chroma subsampling : 4:2:0
      Bit depth : 8 bits
      Scan type : Progressive
      Compression mode : Lossy
      Bits/(Pixel*Frame) : 0.228
      Stream size : 557 MiB (92%)
      Writing library : XviD 64
   Audio #1
      ID : 1
      Format : MPEG Audio
      Format version : Version 1
      Format profile : Layer 3
      Mode : Joint stereo
      Mode extension : MS Stereo
      Codec ID : 55
      Codec ID/Hint : MP3
      Duration : 47mn 27s
      Bit rate mode : Constant
      Bit rate : 128 Kbps
      Channel(s) : 2 channels
      Sampling rate : 48.0 KHz
      Compression mode : Lossy
      Delay relative to video : 8ms
      Stream size : 43.4 MiB (7%)
      Alignment : Split accross interleaves
      Interleave, duration : 40 ms (1.00 video frame)
      Interleave, preload duration : 500 ms
Семпл: http://multi-up.com/768560

picpicpicpicpicpicpicpicpicpic
Для увеличения картинки щелкните мышкой по превью
Внимание! Раздача ведётся путём добавления новых серий; при каждом добавлении создётся новый торрент. Чтобы начать докачку новой серии, пользователям необходимо сделать следующее:
(1) остановить скачивание,
(2) удалить старый торрент-файл у себя из клиента (старые серии удалять не надо),
(3) скачать новый торрент-файл из раздачи и запустить его у себя в клиенте вместо старого, при этом указать клиенту путь в старую папку куда и должно происходить скачивание новых серий.
Ваш клиент при этом должен произвести хеширование (проверку) старой папки (если не производит сам - помогите ему сделать это), и будет докачивать только те серии которых у вас ещё нет. Старые серии при этом не удаляются, а продолжают раздаваться!
Eсли вы уже посмотрели и удалили старые серии, то предотвратить повторную закачку старых серий можно, сняв галочки в соответсвующих местах при запуске нового торрента. По возможности, желательно не удалять старые серии как можно дольше чтобы релизёр не столько продолжал раздавать старые серии, а смог сконцентрироваться на новых.

Этот торрент недоступен для скачивания без регистрации, однако доступен по публичной magnet-ссылке (источники с публичных трекеров). Перед использованием ссылки прочтите, пожалуйста Пользовательское соглашение, а также как можно дольше оставайтесь на раздаче! Для того, чтобы скачать сам торрент-файл (который видит больше источников), а также для того, чтобы поблагодарить релизера, вам необходимо зарегистрироваться. Если регистрироваться лень - вы можете также попробовать скачать релиз по нашим партнерским ссылкам ниже.

[underverse.su].t20516.torrent
Трекер: Зарегистрирован   [ 12.10.2012 16:23 ]  

Статус: проверено (by garry at 12.10.2012 16:36)
Поблагодарили: 1 человек
Тип торрента: публичный - доступные источники с открытых трекеров: 
Размер: 17,84 GB (занимает 4,08 DVDR, для записи нужно 5 болванок DVDR/RW)
 
 
Похожие темы
Форум Тема Автор Торрент Отв. Посл. сооб.
xUSSR сериалы Карпов / Сезон: 1 Серии: 1 - 32 из 32 (Игорь Ромащенко, Иван Щёголев) [2012, криминал, SATRip] 90ytr90
0 | 0

0 | 1635

17

25.09.2012 17:13

xUSSR сериалы Карпов / Серии 1-32 (32) (Игорь Ромащенко, Иван Щёголев, Гюзель Киреева) [2012 г., Детектив, криминал, драма, DVDRip] Чертёнок
2 | 4

0 | 860

14

16.05.2013 12:58

xUSSR сериалы Карпов / Сезон 2 / Серия 1-30 (30) (Иван Щёголев, Сергей Лесогоров) [2013 г., детектив, криминальный, драма, SatRip] nemos
46 | 37

4 | 6701

24

10.10.2013 15:07

xUSSR сериалы Карпов / Сезон 3 / Серия 1-32 (из 32) (Иван Щёголев, Сергей Лесогоров) [2014 г., криминальный, детектив, драма, WEB-DLRip] nemos
1 | 1

1 | 1802

11

07.10.2014 21:17

xUSSR сериалы Карпов / Сезон 3 / Серия 1-32 (из 32)( Иван Щёголев, Владислав Николаев) [2014 г., криминальный, детектив, драма, SatRip] nemos
0 | 0

1 | 2212

13

07.10.2014 21:18



Последний раз редактировалось: nemos (06.11.2014 12:46), всего редактировалось 25 раз(а)

mrpodlost 

01-Окт-2012 19:57

Отличный сериал, на любителя правда :good: ...сволочи НТВ-шники могли бы и подороже фильм снять...экономисты :evil: ...только сюжет и сам Карпов "вывозят"

ZondeR Пол:Муж

02-Окт-2012 17:15

nemos
13-14 добавлять, будете?, а то я хотел присоединиться к раздаче,
у меня просто первых 4х серий нет, я их по ящику посмотрел и нестал качать,
поэтому в личерах болтаюсь :)

nemos Пол:Муж

05-Окт-2012 13:40

Обновлена

ZondeR Пол:Муж

05-Окт-2012 19:16

А 21я где?, у меня 21 серия...

garry Пол:Муж

05-Окт-2012 19:24

патерялася :D

nemos Пол:Муж

06-Окт-2012 08:19

Обновлена

conspop 

08-Окт-2012 09:30

Сериал очень понравился, советую смотреть всем.

nemos Пол:Муж

08-Окт-2012 14:46

Обновлен

nemos Пол:Муж

09-Окт-2012 14:29

Обновлена

nemos Пол:Муж

10-Окт-2012 14:09

Обновлена.

nemos Пол:Муж

11-Окт-2012 13:39

Обновлен,

nemos Пол:Муж

12-Окт-2012 13:32

Обновлен

nemos Пол:Муж

12-Окт-2012 14:53

Обновлен,

Яндекс.Метрика powered by Sphinx


В Н И М А Н И Е
Сайт не распространяет и не хранит электронные версии произведений, а лишь бесплатно и без коммерческой выгоды (не требуя взамен платы,
SMS и т.д.) предоставляет доступ к создаваемому пользователями каталогу ссылок на торрент-файлы, которые содержат только списки хеш-сумм.
Убедительная просьба с жалобами обращаться напрямую к пользователю, разместившему торрент файл.

Вверх