Loading...
Error

Кот: глаза, которые видят смерть / Go-hyang-i: Jook-eum-eul Bo-neun Doo Gae-eui Noon (Сён-вук Бьон) [2011 г., ужасы, драма, детектив, HDRip] DVO

Статистика раздачи
Размер:  1,46 GB   |    Зарегистрирован:  4 года 2 месяца   |    Скачан:  12 раз

Полного источника не было: 2 года 9 месяцев

Сидов:  0  |  0 KB/s  ]   Личеров:  0  |  0 KB/s  ]

* - сиды/пиры с внешних источников

   
 
Автор Сообщение

RG NewCinema 

30-Сен-2012 21:18

Кот: глаза, которые видят смерть / Go-hyang-i: Jook-eum-eul Bo-neun Doo Gae-eui Noon


Год выпуска: 2011
Жанр: ужасы, драма, детектив
Страна: Корея Южная
Режиссер: Сён-вук Бьон
В ролях: Ким Е Рон в роли Хи ЧжениКим, Дон Ук в роли Чжун Сок, Син Да Ын в роли Бо Хи, Пак Мин Ён в роли Со Ён
Сюжет фильма:
Со Ён — девушка, которая ухаживает за животными. Однажды, её клиент умирает в лифте и единственным свидетелем этой смерти является кот по имени Би Дан. Полиция начинает расследование и просит Со Ён присмотреть за этим котом. Но с того момента, как Би Дан появился в доме девушки, начинают происходить странные события, её постоянно мучают кошмары. Пытаясь понять происходящее, Со Ён решает провести своё собственное расследование. Может это всё как-то связано с кошками?

  • Мировая премьера: 7 июля 2011

|
Качество видео: HDRip

Продолжительность: 01:45:26
Формат: avi
Видео: XviD, 720x400, 1779 kbps
Аудио: русский, двухголосый закадровый [NHK47, pandora2177] , AC3 2.0, 192 kbps

Код:

General
Complete name                    : D:\Video\Kot.2011.L2.HDRip.avi
Format                           : AVI
Format/Info                      : Audio Video Interleave
File size                        : 1.46 GiB
Duration                         : 1h 45mn
Overall bit rate                 : 1 983 Kbps
Writing application              : VirtualDubMod 1.5.10.2 (build 2540/release)
Writing library                  : VirtualDubMod build 2540/release

Video
ID                               : 0
Format                           : MPEG-4 Visual
Format profile                   : Streaming Video@L1
Format settings, BVOP            : Yes
Format settings, QPel            : No
Format settings, GMC             : No warppoints
Format settings, Matrix          : Default (MPEG)
Muxing mode                      : Packed bitstream
Codec ID                         : XVID
Codec ID/Hint                    : XviD
Duration                         : 1h 45mn
Bit rate                         : 1 779 Kbps
Width                            : 720 pixels
Height                           : 400 pixels
Display aspect ratio             : 16/9
Frame rate                       : 29.970 fps
Resolution                       : 24 bits
Colorimetry                      : 4:2:0
Scan type                        : Progressive
Bits/(Pixel*Frame)               : 0.206
Stream size                      : 1.31 GiB (90%)
Writing library                  : XviD 1.2.1 (UTC 2008-12-04)

Audio
ID                               : 1
Format                           : AC-3
Format/Info                      : Audio Coding 3
Codec ID                         : 2000
Duration                         : 1h 45mn
Bit rate mode                    : Constant
Bit rate                         : 192 Kbps
Channel(s)                       : 2 channels
Channel positions                : L R
Sampling rate                    : 48.0 KHz
Stream size                      : 145 MiB (10%)
Alignment                        : Split accross interleaves
Interleave, duration             : 33 ms (1.00 video frame)
Interleave, preload duration     : 500 ms

Семпл: http://multi-up.com/767882

picpicpic
Для увеличения картинки щелкните мышкой по превью

Этот торрент недоступен для скачивания без регистрации, однако доступен по публичной magnet-ссылке (источники с публичных трекеров). Перед использованием ссылки прочтите, пожалуйста Пользовательское соглашение, а также как можно дольше оставайтесь на раздаче! Для того, чтобы скачать сам торрент-файл (который видит больше источников), а также для того, чтобы поблагодарить релизера, вам необходимо зарегистрироваться. Если регистрироваться лень - вы можете также попробовать скачать релиз по нашим партнерским ссылкам ниже.

[underverse.su].t20282.torrent
Трекер: Зарегистрирован   [ 30.09.2012 21:18 ]  

Статус: проверено (by garry at 30.09.2012 21:32)
Поблагодарили: пока никто не поблагодарил...
Тип торрента: публичный - доступные источники с открытых трекеров: 
Размер: 1,46 GB (занимает 0,33 DVDR, для записи нужно 1 болванка DVDR/RW)
 
 

Яндекс.Метрика powered by Sphinx


В Н И М А Н И Е
Сайт не распространяет и не хранит электронные версии произведений, а лишь бесплатно и без коммерческой выгоды (не требуя взамен платы,
SMS и т.д.) предоставляет доступ к создаваемому пользователями каталогу ссылок на торрент-файлы, которые содержат только списки хеш-сумм.
Убедительная просьба с жалобами обращаться напрямую к пользователю, разместившему торрент файл.

Вверх