Loading...
Error

Первый ребенок страны / First Kid (Дэвид М. Эванс) [1996 г., комедия, семейный, DVDRip] AVO (Антон Алексеев)+ MVO + AVO (Александр Кашкин) + Original (Eng) + Sub (Rus / Eng)

Статистика раздачи
Размер:  2,2 GB   |    Зарегистрирован:  4 года 2 месяца   |    Скачан:  4 раза

Полного источника не было: 3 года 10 месяцев

Сидов:  0  |  0 KB/s  ]   Личеров:  0  |  0 KB/s  ]

* - сиды/пиры с внешних источников

   
 
Автор Сообщение

DarkAngel Пол:Муж

30-Сен-2012 20:33

Первый ребенок страны / First Kid


Год выпуска: 1996
Жанр: комедия, семейный
Страна: США
Режиссер: Дэвид М. Эванс
В ролях: Синбад, Брок Пирс, Блейк Бойд, Тимоти Басфилд, Арт ЛаФлёр, Роберт Гийом, Лиза Айкхорн, Джеймс Нафтон, Фаун Рид, Erin Williby
Сюжет фильма:
Чернокожий телохранитель Сэм Симмс получает сверхважное задание. он назначен ответственным за жизнь первого ребенка страны — сына президента.

Большой, нелепый, но добродушнейший охранник, обожающий «неуставные» цветастые галстуки, и с виду заносчивый, но несчастный из-за своего одиночества мальчишка мало-помалу становятся друзьями. Сэм учит сына президента боксировать и помогает ему завести друзей среди ровесников…

  • Мировая премьера: 30 августа 1996


Качество видео: DVDRip

Продолжительность: 01:36:41
Формат: AVI
Видео: XviD, 704х384 (16:9), ~ 2069 kbps
Аудио #1: русский, одноголосый закадровый [авторский (А.Алексеев)], AC3 5.1, 384.00 kbps
Аудио #2: русский, многоголосый закадровый [профессиональный], AC3 2.0, 192.00 kbps
Аудио #3: русский, одноголосый закадровый [авторский (А.Кашкин)], AC3 2.0, 192.00 kbps
Аудио #4: английский, оригинал, AC3 5.1, 384.00 kbps
Субтитры #1: тип: внешние, русский, формат: SRT
Субтитры #2: тип: внешние, английский, формат: SRT

Код:

Общее
 Полное имя : Pervyi.rebenok.strany.1981.M.DVDRip.avi
 Формат : AVI
 Формат/Информация : Audio Video Interleave
 Профиль формата : OpenDML
 Размер файла : 2,20 Гбайт
 Продолжительность : 1 ч. 36 м.
 Общий поток : 3252 Кбит/сек
 Программа кодирования : VirtualDubMod 1.5.10.3 (build 2550/release)
 Библиотека кодирования : VirtualDubMod build 2550/release

Видео
 Идентификатор : 0
 Формат : MPEG-4 Visual
 Профиль формата : Advanced Simple@L5
 Параметр BVOP формата : 1
 Параметр QPel формата : Нет
 Параметр GMC формата : Без точки перехода
 Параметр матрицы формата : Выборочная
 Идентификатор кодека : XVID
 Идентификатор кодека/Подсказка : XviD
 Продолжительность : 1 ч. 36 м.
 Битрейт : 2069 Кбит/сек
 Ширина : 704 пикселя
 Высота : 384 пикселя
 Соотношение сторон : 16:9
 Частота кадров : 25,000 кадров/сек
 Цветовое пространство : YUV
 Субдискретизация насыщенности : 4:2:0
 Битовая глубина : 8 бит
 Тип развёртки : Прогрессивная
 Метод сжатия : С потерями
 Бит/(Пиксели*Кадры) : 0.306
 Размер потока : 1,40 Гбайт (64%)
 Библиотека кодирования : XviD 1.2.1 (UTC 2008-12-04)

Аудио #1
 Идентификатор : 1
 Формат : AC-3
 Формат/Информация : Audio Coding 3
 Расширение режима : CM (complete main)
 Идентификатор кодека : 2000
 Продолжительность : 1 ч. 36 м.
 Вид битрейта : Постоянный
 Битрейт : 384 Кбит/сек
 Каналы : 6 каналов
 Расположение каналов : Front: L C R, Side: L R, LFE
 Частота : 48,0 КГц
 Битовая глубина : 16 бит
 Метод сжатия : С потерями
 Размер потока : 266 Мбайт (12%)
 Выравнивание : Разделение по промежуткам
 Продолжительность промежутка : 40 мс. (1,00 видеокадр)
 Время предзагрузки промежутка : 500 мс.

Аудио #2
 Идентификатор : 2
 Формат : AC-3
 Формат/Информация : Audio Coding 3
 Расширение режима : CM (complete main)
 Идентификатор кодека : 2000
 Продолжительность : 1 ч. 36 м.
 Вид битрейта : Постоянный
 Битрейт : 192 Кбит/сек
 Каналы : 2 канала
 Расположение каналов : Front: L R
 Частота : 48,0 КГц
 Битовая глубина : 16 бит
 Метод сжатия : С потерями
 Размер потока : 133 Мбайт (6%)
 Выравнивание : Разделение по промежуткам
 Продолжительность промежутка : 40 мс. (1,00 видеокадр)
 Время предзагрузки промежутка : 500 мс.

Аудио #3
 Идентификатор : 3
 Формат : AC-3
 Формат/Информация : Audio Coding 3
 Расширение режима : CM (complete main)
 Идентификатор кодека : 2000
 Продолжительность : 1 ч. 36 м.
 Вид битрейта : Постоянный
 Битрейт : 192 Кбит/сек
 Каналы : 2 канала
 Расположение каналов : Front: L R
 Частота : 48,0 КГц
 Битовая глубина : 16 бит
 Метод сжатия : С потерями
 Размер потока : 133 Мбайт (6%)
 Выравнивание : Разделение по промежуткам
 Продолжительность промежутка : 40 мс. (1,00 видеокадр)
 Время предзагрузки промежутка : 500 мс.

Аудио #4
 Идентификатор : 4
 Формат : AC-3
 Формат/Информация : Audio Coding 3
 Расширение режима : CM (complete main)
 Идентификатор кодека : 2000
 Продолжительность : 1 ч. 36 м.
 Вид битрейта : Постоянный
 Битрейт : 384 Кбит/сек
 Каналы : 6 каналов
 Расположение каналов : Front: L C R, Side: L R, LFE
 Частота : 48,0 КГц
 Битовая глубина : 16 бит
 Метод сжатия : С потерями
 Размер потока : 266 Мбайт (12%)
 Выравнивание : Разделение по промежуткам
 Продолжительность промежутка : 40 мс. (1,00 видеокадр)
 Время предзагрузки промежутка : 500 мс.
Семпл: http://multi-up.com/569054

picpicpic
Для увеличения картинки щелкните мышкой по превью

Этот торрент недоступен для скачивания без регистрации, однако доступен по публичной magnet-ссылке (источники с публичных трекеров). Перед использованием ссылки прочтите, пожалуйста Пользовательское соглашение, а также как можно дольше оставайтесь на раздаче! Для того, чтобы скачать сам торрент-файл (который видит больше источников), а также для того, чтобы поблагодарить релизера, вам необходимо зарегистрироваться. Если регистрироваться лень - вы можете также попробовать скачать релиз по нашим партнерским ссылкам ниже.

[underverse.su].t20279.torrent
Трекер: Зарегистрирован   [ 30.09.2012 20:33 ]  

Статус: проверено (by Паукан at 04.10.2012 07:28)
Поблагодарили: пока никто не поблагодарил...
Тип торрента: публичный - доступные источники с открытых трекеров: 
Размер: 2,2 GB (занимает 0,5 DVDR, для записи нужно 1 болванка DVDR/RW)
 
 

техно1 Пол:Муж

30-Сен-2012 20:42

DarkAngel
Проверьте пожалуйста оформление, судя по Отчету MediaInfo и скринам размер картинки должен быть 704х384

Яндекс.Метрика powered by Sphinx


В Н И М А Н И Е
Сайт не распространяет и не хранит электронные версии произведений, а лишь бесплатно и без коммерческой выгоды (не требуя взамен платы,
SMS и т.д.) предоставляет доступ к создаваемому пользователями каталогу ссылок на торрент-файлы, которые содержат только списки хеш-сумм.
Убедительная просьба с жалобами обращаться напрямую к пользователю, разместившему торрент файл.

Вверх