Loading...
Error

Порки / Porky's (Боб Кларк) [1982 г., комедия, HDRip] DVO + VO

Статистика раздачи
Размер:  2,18 GB   |    Зарегистрирован:  4 года 2 месяца   |    Скачан:  9 раз

Полного источника не было: 1 год 8 месяцев

Сидов:  0  |  0 KB/s  ]   Личеров:  0  |  0 KB/s  ]

* - сиды/пиры с внешних источников

   
 
Автор Сообщение

Ripodelnia Пол:Муж

29-Сен-2012 16:31

Порки / Porky's


Год выпуска: 1982
Жанр: комедия
Страна: Канада США
Режиссер: Боб Кларк
В ролях: Дэн Монахан, Марк Херриер, Уайатт Найт, Роджер Уилсон, Сирил О’Райлли, Тони Гэниос, Кэки Хантер, Ким Кэтролл, Нэнси Парсонс, Скотт Коломби
Сюжет фильма:
Невозможно даже представить какие нелепые идеи могут прийти в голову американским подросткам в период полового созревания. Они только что открыли для себя мир секса и теперь пытаются применить свои скудные познания на практике.

Мальчики и девочки выплескивают свою сексуальную энергию, буквально на все что их окружает. Их «безобидные» шалости приводят в ужас старшее поколение. А безумно веселые шутки на грани фола, заставят засмеяться кого угодно.

  • Мировая премьера: 19 марта 1982


Качество видео: HDRip [Porkys 1982 1080p BluRay x264 PSYCHD]

Продолжительность: 01:38:26
Формат: avi
Видео: XviD, 720x384, 2178 kbps
Аудио #1: русский, одноголосый закадровый [Гаврилов], AC3 2.0, 256 kbps
Аудио #2: русский, одноголосый закадровый [Живов], AC3 2.0, 256 kbps
Аудио #3: украинский, двухголосый закадровый [профессиональный, ICTV], MP3 2.0, 256 kbps
Аудио #4: английский, оригинал, AC3 2.0, 192 kbps

Код:

General
Complete name                    : D:\Video\Movies\Releases\Porky's.1982.HDRip.Xvid.2.Rus.VO.Ukr.DVO.Eng.O.Ripodelnia.avi
Format                           : AVI
Format/Info                      : Audio Video Interleave
Format profile                   : OpenDML
File size                        : 2.18 GiB
Duration                         : 1h 38mn
Overall bit rate                 : 3 168 Kbps
Writing application              : VirtualDubMod 1.5.10.2 (build 2542/release)
Writing library                  : VirtualDubMod build 2542/release

Video
ID                               : 0
Format                           : MPEG-4 Visual
Format profile                   : Streaming Video@L1
Format settings, BVOP            : Yes
Format settings, QPel            : No
Format settings, GMC             : No warppoints
Format settings, Matrix          : Custom
Muxing mode                      : Packed bitstream
Codec ID                         : XVID
Codec ID/Hint                    : XviD
Duration                         : 1h 38mn
Bit rate                         : 2 178 Kbps
Width                            : 720 pixels
Height                           : 384 pixels
Display aspect ratio             : 1.875
Frame rate                       : 23.976 fps
Resolution                       : 24 bits
Colorimetry                      : 4:2:0
Scan type                        : Progressive
Bits/(Pixel*Frame)               : 0.329
Stream size                      : 1.50 GiB (69%)
Writing library                  : XviD 64

Audio #1
ID                               : 1
Format                           : AC-3
Format/Info                      : Audio Coding 3
Codec ID                         : 2000
Duration                         : 1h 38mn
Bit rate mode                    : Constant
Bit rate                         : 256 Kbps
Channel(s)                       : 2 channels
Channel positions                : L R
Sampling rate                    : 48.0 KHz
Video delay                      : 500ms
Stream size                      : 180 MiB (8%)
Alignment                        : Split accross interleaves
Interleave, duration             : 42 ms (1.00 video frame)
Interleave, preload duration     : 500 ms
Title                            : Porky's.Rus.Gavrilov.AC3.2.0.256.kbps

Audio #2
ID                               : 2
Format                           : AC-3
Format/Info                      : Audio Coding 3
Format profile                   : Dolby Digital
Codec ID                         : 2000
Duration                         : 1h 38mn
Bit rate mode                    : Constant
Bit rate                         : 256 Kbps
Channel(s)                       : 2 channels
Channel positions                : L R
Sampling rate                    : 48.0 KHz
Video delay                      : 500ms
Stream size                      : 180 MiB (8%)
Alignment                        : Split accross interleaves
Interleave, duration             : 42 ms (1.00 video frame)
Interleave, preload duration     : 500 ms
Title                            : Porky's.Rus.Zhivov.AC3.2.0.256.kbps

Audio #3
ID                               : 3
Format                           : MPEG Audio
Format version                   : Version 1
Format profile                   : Layer 3
Codec ID                         : 55
Codec ID/Hint                    : MP3
Duration                         : 1h 38mn
Bit rate mode                    : Constant
Bit rate                         : 256 Kbps
Channel(s)                       : 2 channels
Sampling rate                    : 48.0 KHz
Resolution                       : 16 bits
Video delay                      : 576ms
Stream size                      : 180 MiB (8%)
Alignment                        : Split accross interleaves
Interleave, duration             : 42 ms (1.00 video frame)
Interleave, preload duration     : 504 ms
Title                            : Porky's.Ukr.DVO.MP3.2.0.320.kbps

Audio #4
ID                               : 4
Format                           : AC-3
Format/Info                      : Audio Coding 3
Format profile                   : Dolby Digital
Codec ID                         : 2000
Duration                         : 1h 38mn
Bit rate mode                    : Constant
Bit rate                         : 192 Kbps
Channel(s)                       : 2 channels
Channel positions                : L R
Sampling rate                    : 48.0 KHz
Video delay                      : 500ms
Stream size                      : 135 MiB (6%)
Alignment                        : Split accross interleaves
Interleave, duration             : 42 ms (1.00 video frame)
Interleave, preload duration     : 500 ms
Title                            : Porky's.Eng.O.AC3.2.0.192.kbps

Семпл: http://multi-up.com/767517

picpicpic
Для увеличения картинки щелкните мышкой по превью

Этот торрент недоступен для скачивания без регистрации, однако доступен по публичной magnet-ссылке (источники с публичных трекеров). Перед использованием ссылки прочтите, пожалуйста Пользовательское соглашение, а также как можно дольше оставайтесь на раздаче! Для того, чтобы скачать сам торрент-файл (который видит больше источников), а также для того, чтобы поблагодарить релизера, вам необходимо зарегистрироваться. Если регистрироваться лень - вы можете также попробовать скачать релиз по нашим партнерским ссылкам ниже.

[underverse.su].t20253.torrent
Трекер: Зарегистрирован   [ 29.09.2012 16:31 ]  

Статус: проверено (by Паукан at 29.09.2012 16:32)
Поблагодарили: пока никто не поблагодарил...
Тип торрента: публичный - доступные источники с открытых трекеров: 
Размер: 2,18 GB (занимает 1/2 DVDR, для записи нужно 1 болванка DVDR/RW)
 
 

Яндекс.Метрика powered by Sphinx


В Н И М А Н И Е
Сайт не распространяет и не хранит электронные версии произведений, а лишь бесплатно и без коммерческой выгоды (не требуя взамен платы,
SMS и т.д.) предоставляет доступ к создаваемому пользователями каталогу ссылок на торрент-файлы, которые содержат только списки хеш-сумм.
Убедительная просьба с жалобами обращаться напрямую к пользователю, разместившему торрент файл.

Вверх