Loading...
Error

Синдбад / Sinbad / Сезон: 1 / Серии: 1-12 (12) (Энди Уилсон) [2012 г., фэнтэзи, приключения, HDTVRip] MVO (To4ka)

Статистика раздачи
Размер:  5,27 GB   |    Зарегистрирован:  4 года 2 месяца   |    Скачан:  8 раз

Полного источника не было: 2 года

Сидов:  0  |  0 KB/s  ]   Личеров:  0  |  0 KB/s  ]

* - сиды/пиры с внешних источников

   
 
Автор Сообщение

nemos Пол:Муж

28-Сен-2012 15:53

Синдбад / Sinbad / Сезон: 1 / Серии: 1-12 (12) (Энди Уилсон)


Год выпуска: 2012
Жанр: фэнтези, боевик, приключения
Страна: Великобритания
Режиссер: Энди Уилсон, Брайан Грант, Колин Тига
В ролях: Эллиот Найт, Марама Корлетт, Эллиот Кауэн, Юникс Инокян, Шэйн Леонидас, Эстелла Дэниелс, Нэвин Эндрюс, Йигал Наор, Джанет Сузман, Роберт Гилберт
Сюжет фильма:
Сбежавший из родного города Басра, проклятый собственной бабушкой за неосторожные действия, приведшие к смерти брата, Синдбад оказывается в открытом море на корабле «Провиденье» вместе с целым рядом колоритных персонажей. Пережив неистовый шторм, Синдбад и его товарищи по плаванию вынуждены сплотиться перед лицом своих внутренних демонов, надежд, привязанностей и страхов. Синдбаду предстоят героические странствия, чтобы снять с себя проклятье и принять свою судьбу.


Качество видео: HDTVRip

Продолжительность: 00:42:35 серия
Формат: AVI
Видео: XviD, 720x400, ~1 150 kbps
Аудио 1: русский, многоголосый закадровый [любительский], MP3, 128 kbps
Аудио 2: английский, оригинал, MP3, 128 kbps

Код:

E:\СКАЧКИ\С underverse\Sinbad.s01.2012.HDTVRip.Rus.Eng.[To4ka.TV]\Sinbad.s01e12.2012.HDTVRip.Rus.Eng.[To4ka.TV].avi
   General
      Complete name : E:\СКАЧКИ\С underverse\Sinbad.s01.2012.HDTVRip.Rus.Eng.[To4ka.TV]\Sinbad.s01e12.2012.HDTVRip.Rus.Eng.[To4ka.TV].avi
      Format : AVI
      Format/Info : Audio Video Interleave
      File size : 443 MiB
      Duration : 43mn 35s
      Overall bit rate : 1 421 Kbps
      Writing application : VirtualDubModRus 1.5.10.2 (build 2542/release)
      Writing library : VirtualDubMod build 2542/release
   Video #0
      ID : 0
      Format : MPEG-4 Visual
      Format profile : Simple@L3
      Format settings, BVOP : 1
      Format settings, QPel : No
      Format settings, GMC : No warppoints
      Format settings, Matrix : Default (H.263)
      Codec ID : XVID
      Codec ID/Hint : XviD
      Duration : 43mn 35s
      Bit rate : 1 150 Kbps
      Width : 720 pixels
      Height : 400 pixels
      Display aspect ratio : 16:9
      Frame rate : 25.000 fps
      Color space : YUV
      Chroma subsampling : 4:2:0
      Bit depth : 8 bits
      Scan type : Progressive
      Compression mode : Lossy
      Bits/(Pixel*Frame) : 0.160
      Stream size : 359 MiB (81%)
      Writing library : XviD 1.3.0.dev55
   Audio #1
      ID : 1
      Format : MPEG Audio
      Format version : Version 1
      Format profile : Layer 3
      Mode : Joint stereo
      Mode extension : MS Stereo
      Codec ID : 55
      Codec ID/Hint : MP3
      Duration : 43mn 35s
      Bit rate mode : Constant
      Bit rate : 128 Kbps
      Channel(s) : 2 channels
      Sampling rate : 48.0 KHz
      Compression mode : Lossy
      Stream size : 39.9 MiB (9%)
      Alignment : Aligned on interleaves
      Interleave, duration : 40 ms (1.00 video frame)
      Interleave, preload duration : 504 ms
   Audio #2
      ID : 2
      Format : MPEG Audio
      Format version : Version 1
      Format profile : Layer 3
      Mode : Joint stereo
      Mode extension : MS Stereo
      Codec ID : 55
      Codec ID/Hint : MP3
      Duration : 43mn 35s
      Bit rate mode : Constant
      Bit rate : 128 Kbps
      Channel(s) : 2 channels
      Sampling rate : 48.0 KHz
      Compression mode : Lossy
      Stream size : 39.9 MiB (9%)
      Alignment : Split accross interleaves
      Interleave, duration : 40 ms (1.00 video frame)
      Interleave, preload duration : 500 ms
Семпл: http://tempfile.ru/file/2536322

picpicpicpicpicpicpicpic
Для увеличения картинки щелкните мышкой по превью

Этот торрент недоступен для скачивания без регистрации, однако доступен по публичной magnet-ссылке (источники с публичных трекеров). Перед использованием ссылки прочтите, пожалуйста Пользовательское соглашение, а также как можно дольше оставайтесь на раздаче! Для того, чтобы скачать сам торрент-файл (который видит больше источников), а также для того, чтобы поблагодарить релизера, вам необходимо зарегистрироваться. Если регистрироваться лень - вы можете также попробовать скачать релиз по нашим партнерским ссылкам ниже.

[underverse.su].t20209.torrent
Трекер: Зарегистрирован   [ 28.09.2012 15:53 ]  

Статус: проверено (by garry at 28.09.2012 17:39)
Поблагодарили: пока никто не поблагодарил...
Тип торрента: публичный - доступные источники с открытых трекеров: 
Размер: 5,27 GB (занимает 1,2 DVDR, для записи нужно 2 болванки DVDR/RW)
 
 
Похожие темы
Форум Тема Автор Торрент Отв. Посл. сооб.
Зарубежные сериалы Синдбад / Sinbad [сезон: 1, серии: 01-09] (Энди Уилсон, Брайан Грант, Колин Тига) [2012 г., фэнтези, боевик, приключения, WEBDLRip] RG NewCinema
0 | 0

0 | 682

9

06.09.2012 18:17



Последний раз редактировалось: nemos (06.11.2014 13:17), всего редактировалось 2 раз(а)

28-Сен-2012 17:37

Топик был перенесен из форума TV Series в форум Зарубежные сериалы


gari
 

Яндекс.Метрика powered by Sphinx


В Н И М А Н И Е
Сайт не распространяет и не хранит электронные версии произведений, а лишь бесплатно и без коммерческой выгоды (не требуя взамен платы,
SMS и т.д.) предоставляет доступ к создаваемому пользователями каталогу ссылок на торрент-файлы, которые содержат только списки хеш-сумм.
Убедительная просьба с жалобами обращаться напрямую к пользователю, разместившему торрент файл.

Вверх