Loading...
Error

Приключения Тигрули / The Tigger Movie (Джан Фалкенштейн) [2000 г., мультфильм, драма, комедия, семейный, BDRip] Dub

Статистика раздачи
Размер:  1,46 GB   |    Зарегистрирован:  4 года 2 месяца   |    Скачан:  11 раз

Полного источника не было: 3 года 8 месяцев

Сидов:  0  |  0 KB/s  ]   Личеров:  0  |  0 KB/s  ]

* - сиды/пиры с внешних источников

   
 
Автор Сообщение

StarbirS Пол:Муж

26-Сен-2012 21:27

Приключения Тигрули / The Tigger Movie


Год выпуска: 2000
Жанр: мультфильм, драма, комедия, семейный
Страна: США , Япония
Режиссер: Джан Фалкенштейн
Роли озвучивали: Джим Каммингс, Никита Хопкинс, Кен Сэнсом, Джон Фидлер, Питер Каллен, Андрэ Стойка, Кэт Сауси, Том Аттэнборо, Джон Хёрт, Фрэнк Уэлкер
Сюжет фильма:
Винни Пух, Кролик, Сова, Иа-Иа занимаются приготовлениями к суровой зиме. Но поведение Тигры портит все напрочь. Кролик выгоняет Тигру искать таких же как он.

Но Тигра уверен, что он единственный тигр на белом свете. Как бы то ни было, он отправляется на поиски своей семьи.

Качество видео: BDRip

Продолжительность: 01:17:07
Формат: avi
Видео: DivX 5, 720x400, 2248 kbps
Аудио: русский, дублированный [лицензия], AC3 5.1, 448 kbps

Код:

General
Complete name                    : D:\Фильмы\2010\Приключения Тигрули (2000) BDRip от FireBit-Films.avi
Format                           : AVI
Format/Info                      : Audio Video Interleave
File size                        : 1.46 GiB
Duration                         : 1h 17mn
Overall bit rate                 : 2 706 Kbps
Writing application              : VirtualDubMod 1.5.10.3 | www.virtualdub-fr.org || (build 2550/release)
Writing library                  : VirtualDubMod build 2550/release

Video
ID                               : 0
Format                           : MPEG-4 Visual
Format profile                   : Streaming Video@L1
Format settings, BVOP            : Yes
Format settings, QPel            : No
Format settings, GMC             : No warppoints
Format settings, Matrix          : Default (H.263)
Muxing mode                      : Packed bitstream
Codec ID                         : DX50
Codec ID/Hint                    : DivX 5
Duration                         : 1h 17mn
Bit rate                         : 2 249 Kbps
Width                            : 720 pixels
Height                           : 400 pixels
Display aspect ratio             : 16/9
Frame rate                       : 23.976 fps
Resolution                       : 24 bits
Colorimetry                      : 4:2:0
Scan type                        : Progressive
Bits/(Pixel*Frame)               : 0.326
Stream size                      : 1.21 GiB (83%)
Writing library                  : XviD 58

Audio
ID                               : 1
Format                           : AC-3
Format/Info                      : Audio Coding 3
Codec ID                         : 2000
Duration                         : 1h 17mn
Bit rate mode                    : Constant
Bit rate                         : 448 Kbps
Channel(s)                       : 6 channels
Channel positions                : Front: L C R, Surround: L R, LFE
Sampling rate                    : 48.0 KHz
Stream size                      : 247 MiB (17%)
Alignment                        : Split accross interleaves
Interleave, duration             : 42 ms (1.00 video frame)
Interleave, preload duration     : 500 ms

picpicpic
picpicpic
Для увеличения картинки щелкните мышкой по превью

Этот торрент недоступен для скачивания без регистрации, однако доступен по публичной magnet-ссылке (источники с публичных трекеров). Перед использованием ссылки прочтите, пожалуйста Пользовательское соглашение, а также как можно дольше оставайтесь на раздаче! Для того, чтобы скачать сам торрент-файл (который видит больше источников), а также для того, чтобы поблагодарить релизера, вам необходимо зарегистрироваться. Если регистрироваться лень - вы можете также попробовать скачать релиз по нашим партнерским ссылкам ниже.

[underverse.su].t20169.torrent
Трекер: Зарегистрирован   [ 26.09.2012 21:27 ]  

Статус: проверено (by garry at 26.09.2012 21:41)
Поблагодарили: 1 человек
Тип торрента: публичный - доступные источники с открытых трекеров: 
Размер: 1,46 GB (занимает 1/3 DVDR, для записи нужно 1 болванка DVDR/RW)
 
 
Похожие темы
Форум Тема Автор Торрент Отв. Посл. сооб.
Зарубежное кино [DVDRip, Low-Res HDRip, и т.д.] Приключения Гекльберри Финна / Die Abenteuer des Huck Finn (Гермина Хунтгебурт) [2013 г., Приключения, BDRip-AVC] Dub Чертёнок
1 | 0

1 | 1261

37

08.06.2013 18:37

Зарубежное кино [DVDRip, Low-Res HDRip, и т.д.] Приключения Гекльберри Финна / Die Abenteuer des Huck Finn ( Гермина Хунтгебурт) [2012 г., Приключения, семейный, DVDRip] Dub Gaarochi
0 | 0

0 | 1548

23

08.06.2013 07:16

Зарубежное кино [DVDRip, Low-Res HDRip, и т.д.] Приключения Гекльберри Финна / Die Abenteuer des Huck Finn (Гермина Хунтгебурт / Hermine Huntgeburth) [2012 г., приключения, семейный, BDRip] Dub + Original 90ytr90
3 | 0

0 | 984

16

26.08.2013 15:09

T Зарубежное кино [DVDRip, Low-Res HDRip, и т.д.] Приключение двух нянь / Adventures in Babysitting (Джон Шульц / John Schultz) [2016 г., комедия, WEB-DLRip] Dub (чистый звук) 90ytr90
1238 | 24

0 | 285

8

03.11.2016 22:02

? Зарубежное кино [DVDRip, Low-Res HDRip, и т.д.] Приключения Затойчи / Adventures Of Zatoichi / Zatoichi sekisho yaburi (Кимиёши Ясуда) [1964 г., боевик, приключения, драма, HDRip] Dryn9
0 | 0

1 | 832

2

14.04.2014 17:06

Зарубежное кино [DVDRip, Low-Res HDRip, и т.д.] Приключение двух нянь / Adventures in Babysitting (Джон Шульц / John Schultz) [2016 г., комедия, WEB-DLRip-AVC] MVO (АНАНАС) + Original (Eng) + Sub (Rus, Eng) 90ytr90
178 | 4

0 | 484

7

26.10.2016 19:00

T Зарубежное кино [DVDRip, Low-Res HDRip, и т.д.] Приключение двух нянь / Adventures in Babysitting (Джон Шульц / John Schultz) [2016 г., комедия, WEB-DLRip] Dub (чистый звук) 90ytr90
0 | 0

0 | 483

7

26.10.2016 18:41

T Зарубежное кино [DVDRip, Low-Res HDRip, и т.д.] Приключения Паддингтона / Paddington (Пол Кинг) [2014 г., комедия, семейный, HDTVRip] Dub (чистый звук) 90ytr90
23 | 0

2 | 1100

147

08.03.2015 06:53

T Зарубежное кино [DVDRip, Low-Res HDRip, и т.д.] Приключения Паддингтона / Paddington (Пол Кинг) [2014 г., комедия, семейный, HDTVRip] Dub (чистый звук) 90ytr90
0 | 0

0 | 726

15

18.02.2015 06:11

Зарубежное кино [DVDRip, Low-Res HDRip, и т.д.] Приключения викингов / Viking Quest (Тодор Чапканов / Todor Chapkanov) [2014 г., фэнтези, боевик, HDRip] MVO (SDI) 90ytr90
1 | 0

0 | 1556

70

19.03.2015 11:52


Яндекс.Метрика powered by Sphinx


В Н И М А Н И Е
Сайт не распространяет и не хранит электронные версии произведений, а лишь бесплатно и без коммерческой выгоды (не требуя взамен платы,
SMS и т.д.) предоставляет доступ к создаваемому пользователями каталогу ссылок на торрент-файлы, которые содержат только списки хеш-сумм.
Убедительная просьба с жалобами обращаться напрямую к пользователю, разместившему торрент файл.

Вверх