Loading...
Error

Команда 49: Огненная лестница / Ladder 49 (Джей Расселл) [2004 г., боевик, триллер, драма, HDRip] Dub

Статистика раздачи
Размер:  1,98 GB   |    Зарегистрирован:  4 года 2 месяца   |    Скачан:  6 раз

Полного источника не было: 4 года

Сидов:  0  |  0 KB/s  ]   Личеров:  0  |  0 KB/s  ]

* - сиды/пиры с внешних источников

   
 
Автор Сообщение

StarbirS Пол:Муж

26-Сен-2012 21:10

Команда 49: Огненная лестница / Ladder 49


Год выпуска: 2004
Жанр: боевик, триллер, драма
Страна: США
Режиссер: Джей Расселл
В ролях: Хоакин Феникс, Джон Траволта, Джасинда Бэррет, Роберт Патрик, Моррис Честнат, Билли Бёрк, Бальтазар Гетти, Тим Гини, Кевин Чэпмен, Джей Эрнандес
Сюжет фильма:
Пойманному в огненную ловушку пожарному Джеку Мориссону предстоит вспомнить свою полную приключений жизнь, а его друзьям и коллегам по пожарному отряду «Лестница 49» во главе с боссом Кеннеди сделать все возможное, чтобы спасти его. Впереди у героев — испытания и пламенные вихри, но они — крепкая команда настоящих мужчин, способная все преодолеть…

  • Мировая премьера: 20 сентября 2004
  • Российская премьера: 18 ноября 2004, «Каскад»


Качество видео: HDRip

Продолжительность: 01:55:03
Формат: avi
Видео: DivX 5, 720x400, 2083 kbps
Аудио: русский, дублированный [лицензия], AC3 5.1, 384 kbps

Код:

General
Complete name                    : D:\Фильмы\2010\Команда 49 - Огненная лестница (2004) HDRip от FireBit-Films.avi
Format                           : AVI
Format/Info                      : Audio Video Interleave
File size                        : 1.98 GiB
Duration                         : 1h 55mn
Overall bit rate                 : 2 460 Kbps
Writing application              : VirtualDubMod 1.5.10.3 | www.virtualdub-fr.org || (build 2550/release)
Writing library                  : VirtualDubMod build 2550/release

Video
ID                               : 0
Format                           : MPEG-4 Visual
Format profile                   : Streaming Video@L1
Format settings, BVOP            : Yes
Format settings, QPel            : No
Format settings, GMC             : No warppoints
Format settings, Matrix          : Default (H.263)
Muxing mode                      : Packed bitstream
Codec ID                         : DX50
Codec ID/Hint                    : DivX 5
Duration                         : 1h 55mn
Bit rate                         : 2 084 Kbps
Width                            : 720 pixels
Height                           : 400 pixels
Display aspect ratio             : 16/9
Frame rate                       : 23.976 fps
Resolution                       : 24 bits
Colorimetry                      : 4:2:0
Scan type                        : Progressive
Bits/(Pixel*Frame)               : 0.302
Stream size                      : 1.67 GiB (85%)
Writing library                  : XviD 58

Audio
ID                               : 1
Format                           : AC-3
Format/Info                      : Audio Coding 3
Codec ID                         : 2000
Duration                         : 1h 50mn
Bit rate mode                    : Constant
Bit rate                         : 384 Kbps
Channel(s)                       : 6 channels
Channel positions                : Front: L C R, Surround: L R, LFE
Sampling rate                    : 48.0 KHz
Stream size                      : 302 MiB (15%)
Alignment                        : Split accross interleaves
Interleave, duration             : 44 ms (1.04 video frame)
Interleave, preload duration     : 500 ms

picpicpic
picpicpic
Для увеличения картинки щелкните мышкой по превью

Этот торрент недоступен для скачивания без регистрации, однако доступен по публичной magnet-ссылке (источники с публичных трекеров). Перед использованием ссылки прочтите, пожалуйста Пользовательское соглашение, а также как можно дольше оставайтесь на раздаче! Для того, чтобы скачать сам торрент-файл (который видит больше источников), а также для того, чтобы поблагодарить релизера, вам необходимо зарегистрироваться. Если регистрироваться лень - вы можете также попробовать скачать релиз по нашим партнерским ссылкам ниже.

[underverse.su].t20167.torrent
Трекер: Зарегистрирован   [ 26.09.2012 21:10 ]  

Статус: проверено (by garry at 26.09.2012 21:40)
Поблагодарили: пока никто не поблагодарил...
Тип торрента: публичный - доступные источники с открытых трекеров: 
Размер: 1,98 GB (занимает 0,45 DVDR, для записи нужно 1 болванка DVDR/RW)
 
 


Последний раз редактировалось: StarbirS (26.09.2012 21:33), всего редактировалось 1 раз

Яндекс.Метрика powered by Sphinx


В Н И М А Н И Е
Сайт не распространяет и не хранит электронные версии произведений, а лишь бесплатно и без коммерческой выгоды (не требуя взамен платы,
SMS и т.д.) предоставляет доступ к создаваемому пользователями каталогу ссылок на торрент-файлы, которые содержат только списки хеш-сумм.
Убедительная просьба с жалобами обращаться напрямую к пользователю, разместившему торрент файл.

Вверх