Loading...
Error

Вертикальный предел / Vertical Limit (Мартин Кэмпбелл) [2000 г., боевик, триллер, приключения, HDRip] Dub

Статистика раздачи
Размер:  2 GB   |    Зарегистрирован:  4 года 2 месяца   |    Скачан:  0 раз

Полного источника не было: 4 года 2 месяца

Сидов:  0  |  0 KB/s  ]   Личеров:  0  |  0 KB/s  ]

* - сиды/пиры с внешних источников

   
 
Автор Сообщение

StarbirS Пол:Муж

26-Сен-2012 14:36

Вертикальный предел / Vertical Limit


Год выпуска: 2000
Жанр: боевик, триллер, приключения
Страна: США , Германия
Режиссер: Мартин Кэмпбелл
В ролях: Крис О’Доннелл, Робин Танни, Стюарт Уилсон, Оджи Дэвис, Темуэра Моррисон, Рошан Сет, Алехандро Вальдес-Рочин, Николас Лиа, Род Браун, Скотт Гленн
Сюжет фильма:
Группа альпинистов оказалась погребенной заживо в расщелине у вершины К-2, второй после Эвереста горы мира. На такой высоте им оставалось жить считанные часы.

Шестеро отчаянных смельчаков решают подняться на роковую отметку, чтобы вызволить их из ледяной могилы. Но для этого им придется обогнать свою главную соперницу, которая уже спускается по склонам удушающим холодом и неожиданными лавинами — саму смерть.

  • Мировая премьера: 3 декабря 2000
  • Российская премьера: 1 февраля 2001, «Каскад»


Качество видео: HDRip

Продолжительность: 02:04:27
Формат: avi
Видео: DivX 5, 720x384, 1834 kbps
Аудио: русский, дублированный [лицензия], AC3 5.1, 448 kbps

Код:

General
Complete name                    : D:\Фильмы\Вертикальный предел (2000) HDRip.avi
Format                           : AVI
Format/Info                      : Audio Video Interleave
Format profile                   : OpenDML
File size                        : 2.00 GiB
Duration                         : 2h 4mn
Overall bit rate                 : 2 295 Kbps
Writing application              : VirtualDubMod 1.5.10.3 | www.virtualdub-fr.org || (build 2550/release)
Writing library                  : VirtualDubMod build 2550/release

Video
ID                               : 0
Format                           : MPEG-4 Visual
Format profile                   : Streaming Video@L1
Format settings, BVOP            : Yes
Format settings, QPel            : No
Format settings, GMC             : No warppoints
Format settings, Matrix          : Default (H.263)
Muxing mode                      : Packed bitstream
Codec ID                         : DX50
Codec ID/Hint                    : DivX 5
Duration                         : 2h 4mn
Bit rate                         : 1 835 Kbps
Width                            : 720 pixels
Height                           : 384 pixels
Display aspect ratio             : 1.875
Frame rate                       : 23.976 fps
Resolution                       : 24 bits
Colorimetry                      : 4:2:0
Scan type                        : Progressive
Bits/(Pixel*Frame)               : 0.277
Stream size                      : 1.59 GiB (80%)
Writing library                  : XviD 58

Audio
ID                               : 1
Format                           : AC-3
Format/Info                      : Audio Coding 3
Codec ID                         : 2000
Duration                         : 2h 4mn
Bit rate mode                    : Constant
Bit rate                         : 448 Kbps
Channel(s)                       : 6 channels
Channel positions                : Front: L C R, Surround: L R, LFE
Sampling rate                    : 48.0 KHz
Stream size                      : 399 MiB (20%)
Alignment                        : Split accross interleaves
Interleave, duration             : 42 ms (1.00 video frame)
Interleave, preload duration     : 500 ms

picpicpic
picpicpic
Для увеличения картинки щелкните мышкой по превью

Этот торрент недоступен для скачивания без регистрации, однако доступен по публичной magnet-ссылке (источники с публичных трекеров). Перед использованием ссылки прочтите, пожалуйста Пользовательское соглашение, а также как можно дольше оставайтесь на раздаче! Для того, чтобы скачать сам торрент-файл (который видит больше источников), а также для того, чтобы поблагодарить релизера, вам необходимо зарегистрироваться. Если регистрироваться лень - вы можете также попробовать скачать релиз по нашим партнерским ссылкам ниже.

[underverse.su].t20162.torrent
Трекер: Зарегистрирован   [ 26.09.2012 14:36 ]  

Статус: проверено (by Паукан at 26.09.2012 14:43)
Поблагодарили: 1 человек
Тип торрента: публичный - доступные источники с открытых трекеров: 
Размер: 2 GB (занимает 0,46 DVDR, для записи нужно 1 болванка DVDR/RW)
 
 
Похожие темы
Форум Тема Автор Торрент Отв. Посл. сооб.
Архив Вертикальный предел / Vertical Limit (Мартин Кэмпбелл / Martin Campbell) [2000 г., Боевик, триллер, приключения, HDRip-AVC] floatrx
0 | 0

1 | 1177

6

29.08.2010 23:52


Яндекс.Метрика powered by Sphinx


В Н И М А Н И Е
Сайт не распространяет и не хранит электронные версии произведений, а лишь бесплатно и без коммерческой выгоды (не требуя взамен платы,
SMS и т.д.) предоставляет доступ к создаваемому пользователями каталогу ссылок на торрент-файлы, которые содержат только списки хеш-сумм.
Убедительная просьба с жалобами обращаться напрямую к пользователю, разместившему торрент файл.

Вверх