Loading...
Error

Прометей / Prometheus (Ридли Скотт) [2012 г., фантастика, триллер, приключения, HDRip] Dub (Rus,Ukr) + Original + Sub (Rus,Ukr,Eng) HQ Underverse

Статистика раздачи
Размер:  2,18 GB   |    Зарегистрирован:  4 года 2 месяца   |    Скачан:  51 раз

Полного источника не было: 17 дней

Сидов:  0  |  0 KB/s  ]   Личеров:  0  |  0 KB/s  ]

* - сиды/пиры с внешних источников

   
 
Автор Сообщение

HQ Underverse 

26-Сен-2012 10:41

Прометей / Prometheus


Год выпуска: 2012
Жанр: фантастика, триллер, приключения
Страна: США
Режиссер: Ридли Скотт
В ролях: Нуми Рапас, Майкл Фассбендер, Шарлиз Терон, Идрис Эльба, Гай Пирс, Логан Маршалл-Грин, Шон Харрис, Рейф Сполл, Иман Эллиотт, Бенедикт Вонг
Сюжет фильма:
В поисках сакрального знания группа ученых отправляется в самые темные и неизведанные чертоги вселенной. Именно там, в отдаленных мирах, находясь на пределе своих умственных и физических возможностей, им предстоит вступить в безжалостную схватку за будущее всего человечества…

  • Мировая премьера: 30 мая 2012
  • Российская премьера: 31 мая 2012, «Двадцатый Век Фокс СНГ» 3D

|
Качество видео: HDRip

Продолжительность: 02:04:02
Формат: avi
Видео: XviD, 720x304, 1727 kbps
Аудио #1: русский, дублированный [лицензия], AC3 5.1, 384 kbps
Аудио #2: английский, оригинал, AC3 5.1, 384 kbps
Аудио #3: украинский, дублированный [лицензия], AC3 5.1, 448 kbps (отдельным файлом: здесь)
Субтитры #1: внешние, SRT, английский (на narod.ru)
Субтитры #2: внешние, SRT, русский (на narod.ru)
Субтитры #3: внешние, SRT, украинский (на narod.ru)

Код:

General
Complete name                    : Z:\Видео\HQ\Прометей\Prometheus.2012.HDRip.XviD.AC3.Rus.D.Eng.O.HQ.Underverse.avi
Format                           : AVI
Format/Info                      : Audio Video Interleave
Format profile                   : OpenDML
File size                        : 2.18 GiB
Duration                         : 2h 4mn
Overall bit rate                 : 2 512 Kbps
Writing application              : VirtualDubMod 1.5.10.2 (build 2542/release)
Writing library                  : VirtualDubMod build 2542/release

Video
ID                               : 0
Format                           : MPEG-4 Visual
Format profile                   : Streaming Video@L1
Format settings, BVOP            : Yes
Format settings, QPel            : No
Format settings, GMC             : No warppoints
Format settings, Matrix          : Custom
Muxing mode                      : Packed bitstream
Codec ID                         : XVID
Codec ID/Hint                    : XviD
Duration                         : 2h 4mn
Bit rate                         : 1 728 Kbps
Width                            : 720 pixels
Height                           : 304 pixels
Display aspect ratio             : 2.35
Frame rate                       : 23.976 fps
Resolution                       : 24 bits
Colorimetry                      : 4:2:0
Scan type                        : Progressive
Bits/(Pixel*Frame)               : 0.329
Stream size                      : 1.50 GiB (69%)
Writing library                  : XviD 64

Audio #1
ID                               : 1
Format                           : AC-3
Format/Info                      : Audio Coding 3
Codec ID                         : 2000
Duration                         : 2h 3mn
Bit rate mode                    : Constant
Bit rate                         : 384 Kbps
Channel(s)                       : 6 channels
Channel positions                : Front: L C R, Surround: L R, LFE
Sampling rate                    : 48.0 KHz
Stream size                      : 340 MiB (15%)
Alignment                        : Split accross interleaves
Interleave, duration             : 42 ms (1.00 video frame)
Interleave, preload duration     : 500 ms

Audio #2
ID                               : 2
Format                           : AC-3
Format/Info                      : Audio Coding 3
Codec ID                         : 2000
Duration                         : 2h 3mn
Bit rate mode                    : Constant
Bit rate                         : 384 Kbps
Channel(s)                       : 6 channels
Channel positions                : Front: L C R, Surround: L R, LFE
Sampling rate                    : 48.0 KHz
Stream size                      : 340 MiB (15%)
Alignment                        : Split accross interleaves
Interleave, duration             : 42 ms (1.00 video frame)
Interleave, preload duration     : 500 ms

General
Complete name                    : Z:\Видео\HQ\Прометей\Prometheus.2012.HDRip.XviD.AC3.Rus.D.Eng.O.HQ.Underverse.UKR.ac3
Format                           : AC-3
Format/Info                      : Audio Coding 3
File size                        : 397 MiB
Duration                         : 2h 3mn
Overall bit rate                 : 448 Kbps

Audio
Format                           : AC-3
Format/Info                      : Audio Coding 3
Duration                         : 2h 3mn
Bit rate mode                    : Constant
Bit rate                         : 448 Kbps
Channel(s)                       : 6 channels
Channel positions                : Front: L C R, Surround: L R, LFE
Sampling rate                    : 48.0 KHz
Stream size                      : 397 MiB (100%)

Семпл: http://multi-up.com/765936

Релиз группы:

picpicpic
Для увеличения картинки щелкните мышкой по превью

Этот торрент недоступен для скачивания без регистрации, однако доступен по публичной magnet-ссылке (источники с публичных трекеров). Перед использованием ссылки прочтите, пожалуйста Пользовательское соглашение, а также как можно дольше оставайтесь на раздаче! Для того, чтобы скачать сам торрент-файл (который видит больше источников), а также для того, чтобы поблагодарить релизера, вам необходимо зарегистрироваться. Если регистрироваться лень - вы можете также попробовать скачать релиз по нашим партнерским ссылкам ниже.

[underverse.su].t20155.torrent
Трекер: Зарегистрирован   [ 26.09.2012 10:41 ]  

Статус: проверено (by HQ Underverse at 26.09.2012 10:47)
Поблагодарили: 3 человека
Тип торрента: публичный - доступные источники с открытых трекеров: 
Размер: 2,18 GB (занимает 1/2 DVDR, для записи нужно 1 болванка DVDR/RW)
 
 
Похожие темы
Форум Тема Автор Торрент Отв. Посл. сооб.
Зарубежное кино [DVDRip, Low-Res HDRip, и т.д.] Прометей / Prometheus (Ридли Скотт) [2012 г., фантастика, триллер, приключения, DVDRip] Dub [лицензия] 90ytr90
0 | 0

3 | 788

20

23.09.2012 16:06

Зарубежное кино [DVDRip, Low-Res HDRip, и т.д.] Прометей / Prometheus (Ридли Скотт) [2012 г., фантастика, триллер, приключения, DVDRip] Dub [лицензия] 90ytr90
0 | 0

4 | 1031

67

23.09.2012 15:56

Зарубежное кино [DVDRip, Low-Res HDRip, и т.д.] Прометей / Prometheus (Ридли Скотт) [2012 г., фантастика, триллер, приключения, BDRip] Dub [лицензия] 90ytr90
44 | 2

2 | 1486

92

30.03.2013 15:57

Зарубежное кино [DVDRip, Low-Res HDRip, и т.д.] Прометей / Prometheus (Ридли Скотт) [2012 г., фантастика, триллер, приключения, BDRip-AVC] Dub + Original Garnett
0 | 0

3 | 802

22

04.10.2012 04:21

Зарубежное кино [DVD / HDDVD / BD / Remux] Прометей / Prometheus (Ридли Скотт / Ridley Scott) [2012 г., США, Великобритания, фантастика, триллер, приключения, Blu-ray 1080p] [EUR] uzi2009
0 | 0

0 | 1139

14

18.05.2014 21:16

Зарубежное кино [HDDVDRip / BDRip / WEB-DL / HDTV 1080/720р] Прометей / Prometheus ( Ридли Скотт) [2012 г., фантастика, триллер, приключения, BDRip 720p] Dub + Original Чертёнок
2 | 0

0 | 1235

34

25.02.2013 01:18

Зарубежное кино [HDDVDRip / BDRip / WEB-DL / HDTV 1080/720р] Прометей / Prometheus (Ридли Скотт) [2012 г., Фантастика, триллер, приключения, BDRip 1080p] Dub Чертёнок
1 | 0

0 | 652

15

03.05.2013 10:24

pdgtomsk 

04-Окт-2012 16:13

На большом экране хорошо смотрится!

Яндекс.Метрика powered by Sphinx


В Н И М А Н И Е
Сайт не распространяет и не хранит электронные версии произведений, а лишь бесплатно и без коммерческой выгоды (не требуя взамен платы,
SMS и т.д.) предоставляет доступ к создаваемому пользователями каталогу ссылок на торрент-файлы, которые содержат только списки хеш-сумм.
Убедительная просьба с жалобами обращаться напрямую к пользователю, разместившему торрент файл.

Вверх