Loading...
Error

Подпольная империя / Boardwalk Empire / Сезон: 3 / Серии: 1-12 (12) (Тимоти Ван Паттен, Аллен Култер, Джереми Подесва) [2012 г., драма, криминал, WEBDLRip] MVO

Статистика раздачи
Размер:  6,04 GB   |    Зарегистрирован:  3 года 1 месяц   |    Скачан:  37 раз

Полного источника не было: 1 месяц 2 дня

Сидов:  0  |  0 KB/s  ]   Личеров:  0  |  0 KB/s  ]

* - сиды/пиры с внешних источников

   
 
Автор Сообщение

garry Пол:Муж

25-Сен-2012 21:39

Подпольная империя / Сезон: 3, серии: 1-12 (12) / Boardwalk Empire


Год выпуска: 2012
Жанр: драма, криминал
Страна: США
Режиссер: Тимоти Ван Паттен, Аллен Култер, Джереми Подесва
В ролях: Стив Бушеми, Майкл Питт, Келли Макдоналд, Майкл Шеннон, Ши Уигхэм, Алекса Палладино, Майкл Стулбарг, Стивен Грэм, Винсент Пьяцца, Джек Хьюстон
Сюжет фильма:
1920 год. Через несколько часов Атлантик-Сити — столица развлечений и порока, как и вся Америка, вступит в эпоху «Сухого закона». Енох «Наки» Томпсон, днем — городской казначей, а ночью — хитроумный гангстер со связями на самом «верху», решает воспользоваться ситуацией и получить баснословные прибыли на подпольной торговле алкоголем. Однако не он один жаждет обогатиться на новом промысле…

Качество видео: WEBDLRip

Продолжительность: ~01:00:00 x 12
Формат: avi
Видео: XviD, 720x400, 1 199 kbps
Аудио: русский, многоголосый закадровый [профессиональный, Lostfilm], AC3 2.0, 192 kbps

Код:

General
Complete name                    : D:\Video\Serials\Boardwalk.Empire.S03 (Lostfilm)\Boardwalk.Empire.S03E01.avi
Format                           : AVI
Format/Info                      : Audio Video Interleave
File size                        : 717 MiB
Duration                         : 59mn 17s
Overall bit rate                 : 1 692 Kbps
Writing application              : VirtualDubMod 1.5.10.3 | www.virtualdub-fr.org || (build 2550/release)
Writing library                  : VirtualDubMod build 2550/release

Video
ID                               : 0
Format                           : MPEG-4 Visual
Format profile                   : Streaming Video@L1
Format settings, BVOP            : Yes
Format settings, QPel            : No
Format settings, GMC             : No warppoints
Format settings, Matrix          : Default (MPEG)
Codec ID                         : XVID
Codec ID/Hint                    : XviD
Duration                         : 59mn 17s
Bit rate                         : 1 422 Kbps
Width                            : 720 pixels
Height                           : 400 pixels
Display aspect ratio             : 16/9
Frame rate                       : 23.976 fps
Resolution                       : 24 bits
Colorimetry                      : 4:2:0
Scan type                        : Progressive
Bits/(Pixel*Frame)               : 0.206
Stream size                      : 603 MiB (84%)
Writing library                  : XviD 1.2.1 (UTC 2008-12-04)

Audio #1
ID                               : 1
Format                           : MPEG Audio
Format version                   : Version 1
Format profile                   : Layer 3
Codec ID                         : 55
Codec ID/Hint                    : MP3
Duration                         : 59mn 17s
Bit rate mode                    : Constant
Bit rate                         : 128 Kbps
Channel(s)                       : 2 channels
Sampling rate                    : 48.0 KHz
Resolution                       : 16 bits
Stream size                      : 54.3 MiB (8%)
Alignment                        : Aligned on interleaves
Interleave, duration             : 42 ms (1.00 video frame)
Interleave, preload duration     : 504 ms

Audio #2
ID                               : 2
Format                           : MPEG Audio
Format version                   : Version 1
Format profile                   : Layer 3
Codec ID                         : 55
Codec ID/Hint                    : MP3
Duration                         : 59mn 17s
Bit rate mode                    : Constant
Bit rate                         : 128 Kbps
Channel(s)                       : 2 channels
Sampling rate                    : 48.0 KHz
Resolution                       : 16 bits
Stream size                      : 54.3 MiB (8%)
Alignment                        : Aligned on interleaves
Interleave, duration             : 42 ms (1.00 video frame)
Interleave, preload duration     : 504 ms
Writing library                  : LAME3.98r
Encoding settings                : -m j -V 4 -q 0 -lowpass 17 -b 128

Семпл: http://multi-up.com/765686

Релиз группы:

picpicpic
Для увеличения картинки щелкните мышкой по превью

Этот торрент недоступен для скачивания без регистрации, однако доступен по публичной magnet-ссылке (источники с публичных трекеров). Перед использованием ссылки прочтите, пожалуйста Пользовательское соглашение, а также как можно дольше оставайтесь на раздаче! Для того, чтобы скачать сам торрент-файл (который видит больше источников), а также для того, чтобы поблагодарить релизера, вам необходимо зарегистрироваться. Если регистрироваться лень - вы можете также попробовать скачать релиз по нашим партнерским ссылкам ниже.

[underverse.su].t20149.torrent
Трекер: Зарегистрирован   [ 14.10.2013 16:09 ]  

Статус: проверено (by garry at 14.10.2013 16:09)
Поблагодарили: пока никто не поблагодарил...
Тип торрента: публичный - доступные источники с открытых трекеров: 
Размер: 6,04 GB (занимает 1,38 DVDR, для записи нужно 2 болванки DVDR/RW)
 
 
Похожие темы
Форум Тема Автор Торрент Отв. Посл. сооб.
Зарубежные сериалы Подпольная империя / Boardwalk Empire (Сезон 1 / Серии 1-12) (Тимоти Ван Паттен, Аллен Култер, Джереми Подесва) [2010 г., драма, криминал, HDTVRip] garry
1 | 4

0 | 1790

63

12.06.2012 15:58

Зарубежные сериалы Подпольная империя / Boardwalk Empire (Сезон 2 / Серии 1-12) (Тимоти Ван Паттен, Аллен Култер, Джереми Подесва) [2011 г., драма, криминал, HDTVRip] garry
5 | 1

0 | 1602

52

25.06.2012 10:37

Зарубежные сериалы Подпольная империя / Boardwalk Empire / Сезон: 4 / Серии: 1-12 (Тимоти Ван Паттен, Аллен Култер, Джереми Подесва) [2013 г., драма, криминал, HDTVRip] MVO + Original garry
2 | 0

2 | 2350

38

22.12.2013 11:24



Последний раз редактировалось: garry (14.10.2013 16:09), всего редактировалось 26 раз(а)

Garrvest Пол:Муж

02-Ноя-2012 20:18

Ну и как фильм? Лучше "Однажды в Америке"?

garry Пол:Муж

14-Ноя-2012 21:07

добавлена 9 серия

artem4k Пол:Муж

20-Ноя-2012 11:51

спасибо!

garry Пол:Муж

06-Дек-2012 21:19

последняя 12 серия этого сезона

garry Пол:Муж

14-Окт-2013 16:10

качество заменено на WEBDLRip

Яндекс.Метрика powered by Sphinx


В Н И М А Н И Е
Сайт не распространяет и не хранит электронные версии произведений, а лишь бесплатно и без коммерческой выгоды (не требуя взамен платы,
SMS и т.д.) предоставляет доступ к создаваемому пользователями каталогу ссылок на торрент-файлы, которые содержат только списки хеш-сумм.
Убедительная просьба с жалобами обращаться напрямую к пользователю, разместившему торрент файл.

Вверх