Loading...
Error

Во все тяжкие / Breaking Bad / Сезон: 5 / Серии: 1-8 (16) (Адам Бернштейн, Мишель Максвелл МакЛарен) [2012 г., Криминал, драма, триллер, WEBDLRip] MVO + Original

Статистика раздачи
Размер:  3,91 GB   |    Зарегистрирован:  4 года 2 месяца   |    Скачан:  59 раз

Полного источника не было: 3 месяца 27 дней

Сидов:  0  |  0 KB/s  ]   Личеров:  0  |  0 KB/s  ]

* - сиды/пиры с внешних источников

   
 
Автор Сообщение

Jimmy Пол:Муж

25-Сен-2012 14:41

Во все тяжкие / Breaking Bad / Сезон: 5

Год выпуска: 2012
Жанр: Криминал, драма, триллер
Страна: США
Режиссер: Адам Бернштейн, Мишель Максвелл МакЛарен и другие
В ролях: Брайан Крэнстон, Анна Ганн, Аарон Пол, Дин Норрис, Бетси Брандт, Эр Джей Митт, Боб Оденкирк, Джонатан Бэнкс, Джанкарло Эспозито, Стивен Майкл Квезада и другие
Сюжет фильма:
Во все тяжкие (Breaking Bad) — американский телесериал о неизлечимо больном учителе химии, занимающимся изготовлением наркотиков (метамфетамин) ради обеспечения будущего своей семьи.

Качество видео: WEBDLRip
Продолжительность: ~00:42:55
Формат: AVI
Видео: XviD, 720x400 (16:9), 1350 kbps
Аудио #1: русский, многоголосый закадровый [профессиональный], MP3 2.0, 128 kbps
Аудио #2: английский, оригинал, MP3 2.0, 128 kbps

Код:

General
Complete name                    : F:\Видео\Сериалы\Breaking.Bad.s05.LostFilm\Breaking.Bad.s05e01.LostFilm.avi
Format                           : AVI
Format/Info                      : Audio Video Interleave
File size                        : 500 MiB
Duration                         : 42mn 55s
Overall bit rate                 : 1 629 Kbps
Writing application              : VirtualDubMod 1.5.10.2 (build 2540/release)
Writing library                  : VirtualDubMod build 2540/release

Video
ID                               : 0
Format                           : MPEG-4 Visual
Format profile                   : Streaming Video@L1
Format settings, BVOP            : Yes
Format settings, QPel            : No
Format settings, GMC             : No warppoints
Format settings, Matrix          : Custom
Codec ID                         : XVID
Codec ID/Hint                    : XviD
Duration                         : 42mn 55s
Bit rate                         : 1 359 Kbps
Width                            : 720 pixels
Height                           : 400 pixels
Display aspect ratio             : 16/9
Frame rate                       : 23.976 fps
Resolution                       : 24 bits
Colorimetry                      : 4:2:0
Scan type                        : Progressive
Bits/(Pixel*Frame)               : 0.197
Stream size                      : 417 MiB (83%)
Writing library                  : XviD 65

Audio #1
ID                               : 1
Format                           : MPEG Audio
Format version                   : Version 1
Format profile                   : Layer 3
Codec ID                         : 55
Codec ID/Hint                    : MP3
Duration                         : 42mn 55s
Bit rate mode                    : Constant
Bit rate                         : 128 Kbps
Channel(s)                       : 2 channels
Sampling rate                    : 48.0 KHz
Resolution                       : 16 bits
Stream size                      : 39.3 MiB (8%)
Alignment                        : Aligned on interleaves
Interleave, duration             : 42 ms (1.00 video frame)
Interleave, preload duration     : 504 ms

Audio #2
ID                               : 2
Format                           : MPEG Audio
Format version                   : Version 1
Format profile                   : Layer 3
Codec ID                         : 55
Codec ID/Hint                    : MP3
Duration                         : 42mn 55s
Bit rate mode                    : Constant
Bit rate                         : 128 Kbps
Channel(s)                       : 2 channels
Sampling rate                    : 48.0 KHz
Resolution                       : 16 bits
Stream size                      : 39.3 MiB (8%)
Alignment                        : Aligned on interleaves
Interleave, duration             : 42 ms (1.00 video frame)
Interleave, preload duration     : 504 ms

Семпл: http://multi-up.com/734675
Релиз группы:
picpicpicpic
Для увеличения картинки щелкните мышкой по превью

Этот торрент недоступен для скачивания без регистрации, однако доступен по публичной magnet-ссылке (источники с публичных трекеров). Перед использованием ссылки прочтите, пожалуйста Пользовательское соглашение, а также как можно дольше оставайтесь на раздаче! Для того, чтобы скачать сам торрент-файл (который видит больше источников), а также для того, чтобы поблагодарить релизера, вам необходимо зарегистрироваться. Если регистрироваться лень - вы можете также попробовать скачать релиз по нашим партнерским ссылкам ниже.

[underverse.su].t20141.torrent
Трекер: Зарегистрирован   [ 25.09.2012 14:41 ]  

Статус: проверено (by garry at 25.09.2012 15:30)
Поблагодарили: 2 человека
Тип торрента: публичный - доступные источники с открытых трекеров: 
Размер: 3,91 GB (занимает 0,89 DVDR, для записи нужно 1 болванка DVDR/RW)
 
 
Похожие темы
Форум Тема Автор Торрент Отв. Посл. сооб.
Зарубежные сериалы Во все тяжкие / Breaking Bad / Сезон 1 / Серии: 1-7 (7) (Адам Бернштейн) [2008 г., триллер, драма, криминал, WEBDLRip] MVO (LostFilm) Jimmy
13 | 16

0 | 1939

175

15.12.2012 16:48

Зарубежные сериалы Во все тяжкие / Breaking Bad / Сезон 5 / Cерии 9-16 (Брайан Крэнстон) [2013 г., драма, криминал] DVO (Кубик в Кубе) + original Jimmy
0 | 0

0 | 1782

13

08.02.2014 18:22

Зарубежные сериалы [BD / Remux / BDRip / WEB-DL / HDTV 1080/720р] Во все тяжкие / Breaking Bad / Сезон 4 / Серии: 1-13 (13) (Адам Бернштейн) [2011 г., триллер, драма, криминал, HDTVRip 720p] MVO Alexsandr1029
0 | 0

1 | 865

16

29.12.2013 10:52



Последний раз редактировалось: Jimmy (09.04.2014 17:06), всего редактировалось 1 раз

conspop 

08-Окт-2012 09:41

Сериал хорош, скорей бы продолжение.

Jimmy Пол:Муж

08-Окт-2012 14:28

Цитата:

Сериал хорош, скорей бы продолжение.
Скоро, скоро. Летом 2013

Яндекс.Метрика powered by Sphinx


В Н И М А Н И Е
Сайт не распространяет и не хранит электронные версии произведений, а лишь бесплатно и без коммерческой выгоды (не требуя взамен платы,
SMS и т.д.) предоставляет доступ к создаваемому пользователями каталогу ссылок на торрент-файлы, которые содержат только списки хеш-сумм.
Убедительная просьба с жалобами обращаться напрямую к пользователю, разместившему торрент файл.

Вверх