Loading...
Error

Клиника / Scrubs / Сезоны 1-9 / Серии 1-181 (181) (Майкл Спиллер, Джон Инвуд, Зак Брафф и др.) [2001 - 2010 г., Ситком, драма, DVDRip] MVO + Original

Статистика раздачи
Размер:  48,79 GB   |    Зарегистрирован:  4 года 2 месяца   |    Скачан:  22 раза

Полного источника не было: 10 дней

Сидов:  0  |  0 KB/s  ]   Личеров:  0  |  0 KB/s  ]

* - сиды/пиры с внешних источников

   
 
Автор Сообщение

Jimmy Пол:Муж

24-Сен-2012 05:08

Клиника / Scrubs / Сезоны 1-9

Год выпуска: 2001 - 2010
Жанр: Ситком, драма
Страна: США
Режиссер: Майкл Спиллер, Джон Инвуд, Зак Брафф и др.
В ролях: Зак Брафф, Дональд Фэйсон, Сара Чок, Джон К. МакГинли, Нил Флинн, Джуди Рейс, Кен Дженкинс, Криста Миллер, Сэм Ллойд, Элизабет Бэнкс
Сюжет фильма:
Сериал посвящён жизни и карьере молодых врачей Джона Дориана (Джей Ди) и его друга Кристофера Тёрка, которые в начале сериала только что закончили учёбу и пришли на работу в клинику «Sacred Heart» (рус. Святое Сердце). В больнице они находят новых друзей и новые трудности как профессионального, так и личного плана, которые им необходимо преодолеть. Кроме того, в сериале достаточно большое место уделяется трём любовным линиям: Криса Тёрка и Карлы Эспиносы, Перри Кокса и Джордан, а также так или иначе проявляющимся отношениям Джей Ди и Эллиот Рид.

Качество видео: DVDRip
Продолжительность: 181 * ~21 мин
Формат: AVI
Видео: XviD, 640x480, 1500 kbps
Аудио #1: русский, многоголосый закадровый [профессиональный - MTV], MP3 2.0, 128 kbps
Аудио #2: английский, оригинал, MP3 2.0, 192 kbps

Код:

General
Format: AVI
Format/Info: Audio Video Interleave
File size: 293 MiB
Duration: 22mn 25s
Overall bit rate: 1 829 Kbps
Writing application: VirtualDubMod 1.5.10.2 (build 2540/release)
Writing library: VirtualDubMod build 2540/release
Video
Format: MPEG-4 Visual
Format profile: Advanced Simple@L5
Format settings, BVOP: Yes
Format settings, QPel: No
Format settings, GMC: No warppoints
Format settings, Matrix: Default (H.263)
Muxing mode: Packed bitstream
Codec ID: XVID
Codec ID/Hint: XviD
Duration: 22mn 25s
Bit rate: 1 495 Kbps
Width: 640 pixels
Height: 480 pixels
Display aspect ratio: 4:3
Frame rate: 25.000 fps
Color space: YUV
Chroma subsampling: 4:2:0
Bit depth: 8 bits
Scan type: Progressive
Bits/(Pixel*Frame): 0.195
Stream size: 240 MiB (82%)
Writing library: XviD 64
Audio #1
Format: MPEG Audio
Format version: Version 1
Format profile: Layer 3
Mode: Joint stereo
Codec ID: 55
Codec ID/Hint: MP3
Duration: 22mn 25s
Bit rate mode: Constant
Bit rate: 128 Kbps
Channel(s): 2 channels
Sampling rate: 48.0 KHz
Stream size: 20.5 MiB (7%)
Alignment: Aligned on interleaves
Interleave, duration: 40 ms (1.00 video frame)
Interleave, preload duration: 504 ms
Title: Russian
Writing library: LAME3.98r
Encoding settings: -m j -V 4 -q 0 -lowpass 17 -b 128
Audio #2
Format: MPEG Audio
Format version: Version 1
Format profile: Layer 3
Mode: Joint stereo
Mode extension: MS Stereo
Codec ID: 55
Codec ID/Hint: MP3
Duration: 22mn 25s
Bit rate mode: Constant
Bit rate: 192 Kbps
Channel(s): 2 channels
Sampling rate: 48.0 KHz
Stream size: 30.8 MiB (10%)
Alignment: Aligned on interleaves
Interleave, duration: 40 ms (1.00 video frame)
Interleave, preload duration: 504 ms
Title: English
Writing library: LAME3.98r
Encoding settings: -m j -V 4 -q 0 -lowpass 18.6 -b 192

Семпл: http://ifolder.ru/26608873
picpicpicpic
Для увеличения картинки щелкните мышкой по превью

Этот торрент недоступен для скачивания без регистрации, однако доступен по публичной magnet-ссылке (источники с публичных трекеров). Перед использованием ссылки прочтите, пожалуйста Пользовательское соглашение, а также как можно дольше оставайтесь на раздаче! Для того, чтобы скачать сам торрент-файл (который видит больше источников), а также для того, чтобы поблагодарить релизера, вам необходимо зарегистрироваться. Если регистрироваться лень - вы можете также попробовать скачать релиз по нашим партнерским ссылкам ниже.

[underverse.su].t20126.torrent
Трекер: Зарегистрирован   [ 24.09.2012 05:08 ]  

Статус: проверено (by garry at 24.09.2012 08:58)
Поблагодарили: 2 человека
Тип торрента: публичный - доступные источники с открытых трекеров: 
Размер: 48,79 GB (занимает 11,15 DVDR, для записи нужно 12 болванок DVDR/RW)
 
 

uzi2009 Пол:Муж

19-Янв-2014 20:12

Сериальчик зачётный :good:

Яндекс.Метрика powered by Sphinx


В Н И М А Н И Е
Сайт не распространяет и не хранит электронные версии произведений, а лишь бесплатно и без коммерческой выгоды (не требуя взамен платы,
SMS и т.д.) предоставляет доступ к создаваемому пользователями каталогу ссылок на торрент-файлы, которые содержат только списки хеш-сумм.
Убедительная просьба с жалобами обращаться напрямую к пользователю, разместившему торрент файл.

Вверх