Loading...
Error

Идентификация Борна. Превосходство Борна. Ультиматум Борна / Bourne Identity. Bourne Supremacy. Bourne Ultimatum (Даг Лайман, Пол Гринграсс) [2002, 2004, 2007 гг., боевик, триллер, криминал, детектив, BDRip] Dub

Статистика раздачи
Размер:  6,55 GB   |    Зарегистрирован:  4 года 2 месяца   |    Скачан:  15 раз

Полного источника не было: 1 год 10 месяцев

Сидов:  0  |  0 KB/s  ]   Личеров:  0  |  0 KB/s  ]

* - сиды/пиры с внешних источников

   
 
Автор Сообщение

garry Пол:Муж

23-Сен-2012 19:17

Идентификация Борна / The Bourne Identity


Год выпуска: 2002
Жанр: боевик, триллер, криминал, детектив
Страна: США , Германия , Чехия
Режиссер: Даг Лайман
В ролях: Мэтт Дэймон, Франка Потенте, Крис Купер, Клайв Оуэн, Брайан Кокс, Адевале Акинойе-Агбаже, Гэбриел Манн, Уолтон Гоггинс, Джош Хэмилтон, Джулия Стайлз
Сюжет фильма:
Команда итальянского рыболовецкого судна находит в водах Средиземного моря тело мужчины. У него два пулевых ранения в спине и имплантированный в бедро микрофильм, помеченный номером швейцарского банка. Когда незнакомец приходит в себя, оказывается, что он не помнит кто он, и что с ним случилось, однако он может говорить на нескольких языках и обладает другими необычными способностями.

Получив в Цюрихе деньги с указанного банковского счета, он узнает свое имя Джейсон Борн. Но настоящее это его имя или нет? Пытаясь восстановить свое прошлое, он находит свой адрес в Париже, но вместе с этим понимает, что отслеживается убийцей. Борн уговаривает немецкую студентку Мэри отвезти его в Париж, чтобы выяснить все о своем прошлом и понять, кто хочет его убить…

  • Мировая премьера: 6 июня 2002
  • Российская премьера: 10 октября 2002, «Ист-Вест»


Качество видео: BDRip [HANSMER / Blu-Ray Remux / 1080p]

Продолжительность: 01:58:17
Формат: avi
Видео: XviD, 720x304, 2179 kbps
Аудио: русский, дублированный [лицензия], AC3 5.1, 448 kbps

Код:

General
Complete name                    : D:\Video\Movies\Bourne\Identifikaciya.Borna.2002.RUS.BDRip.XviD.AC3.-HQCLUB.avi
Format                           : AVI
Format/Info                      : Audio Video Interleave
Format profile                   : OpenDML
File size                        : 2.18 GiB
Duration                         : 1h 58mn
Overall bit rate                 : 2 640 Kbps
Movie name                       : Идентификация Борна / The Bourne Identity (2002) BDRip
Director                         : Gellard
Writing application              : VirtualDubModRus 1.5.10.2 (build 2542/release)
Copyright                        : http://hqclub.net/
Comment                          : 07.08.2010

Video
ID                               : 0
Format                           : MPEG-4 Visual
Format profile                   : Streaming Video@L1
Format settings, BVOP            : Yes
Format settings, QPel            : No
Format settings, GMC             : No warppoints
Format settings, Matrix          : Custom
Codec ID                         : XVID
Codec ID/Hint                    : XviD
Duration                         : 1h 58mn
Bit rate                         : 2 180 Kbps
Width                            : 720 pixels
Height                           : 304 pixels
Display aspect ratio             : 2.35
Frame rate                       : 23.976 fps
Resolution                       : 24 bits
Colorimetry                      : 4:2:0
Scan type                        : Progressive
Bits/(Pixel*Frame)               : 0.415
Stream size                      : 1.80 GiB (83%)
Writing library                  : XviD 1.2.1 (UTC 2008-12-04)

Audio
ID                               : 1
Format                           : AC-3
Format/Info                      : Audio Coding 3
Codec ID                         : 2000
Duration                         : 1h 58mn
Bit rate mode                    : Constant
Bit rate                         : 448 Kbps
Channel(s)                       : 6 channels
Channel positions                : Front: L C R, Surround: L R, LFE
Sampling rate                    : 48.0 KHz
Stream size                      : 379 MiB (17%)
Alignment                        : Split accross interleaves
Interleave, duration             : 42 ms (1.00 video frame)
Interleave, preload duration     : 500 ms

Семпл: http://multi-up.com/764796

Релиз группы:

picpicpic
Для увеличения картинки щелкните мышкой по превью


Превосходство Борна / The Bourne Supremacy


Год выпуска: 2004
Жанр: боевик, триллер, криминал
Страна: США , Германия
Режиссер: Пол Гринграсс
В ролях: Мэтт Дэймон, Карл Урбан, Брайан Кокс, Джоан Аллен, Франка Потенте, Джулия Стайлз, Гэбриел Манн, Мартон Чокаш, Том Гэллоп, Джон Бедфорд Ллойд
Сюжет фильма:
Суперагент ЦРУ Джейсон Борн вновь оказывается подставленным и вынужден помимо возложенной на него задачи государственного значения спасать себя, а заодно и других небезразличных ему людей.

В процессе выполнения миссии судьба заносит Борна в Россию, где его ждет множество характерных для страны, но непривычных западному человеку сюрпризов.

  • Мировая премьера: 15 июля 2004
  • Российская премьера: 2 сентября 2004, «UIP»


Качество видео: BDRip [HANSMER / Blu-Ray Remux / 1080p]

Продолжительность: 01:48:31
Формат: avi
Видео: XviD, 720x304, 2096 kbps
Аудио #1: русский, дублированный [лицензия], AC3 5.1, 384 kbps
Аудио #2: английский, оригинал, AC3 5.1, 384 kbps

Код:

General
Complete name                    : D:\Video\Movies\Bourne\Prevoshodstvo.Borna.2004.DUAL.BDRip.XviD.AC3.-HQCLUB.avi
Format                           : AVI
Format/Info                      : Audio Video Interleave
Format profile                   : OpenDML
File size                        : 2.18 GiB
Duration                         : 1h 48mn
Overall bit rate                 : 2 882 Kbps
Movie name                       : Превосходство Борна / The Bourne Supremacy (2004) BDRip
Director                         : Gellard
Writing application              : VirtualDubModRus 1.5.10.2 (build 2542/release)
Copyright                        : http://hqclub.net/
Comment                          : 08.08.2010

Video
ID                               : 0
Format                           : MPEG-4 Visual
Format profile                   : Streaming Video@L1
Format settings, BVOP            : Yes
Format settings, QPel            : No
Format settings, GMC             : No warppoints
Format settings, Matrix          : Custom
Codec ID                         : XVID
Codec ID/Hint                    : XviD
Duration                         : 1h 48mn
Bit rate                         : 2 097 Kbps
Width                            : 720 pixels
Height                           : 304 pixels
Display aspect ratio             : 2.35
Frame rate                       : 23.976 fps
Resolution                       : 24 bits
Colorimetry                      : 4:2:0
Scan type                        : Progressive
Bits/(Pixel*Frame)               : 0.400
Stream size                      : 1.59 GiB (73%)
Writing library                  : XviD 1.2.1 (UTC 2008-12-04)

Audio #1
ID                               : 1
Format                           : AC-3
Format/Info                      : Audio Coding 3
Codec ID                         : 2000
Duration                         : 1h 48mn
Bit rate mode                    : Constant
Bit rate                         : 384 Kbps
Channel(s)                       : 6 channels
Channel positions                : Front: L C R, Surround: L R, LFE
Sampling rate                    : 48.0 KHz
Stream size                      : 298 MiB (13%)
Alignment                        : Split accross interleaves
Interleave, duration             : 42 ms (1.00 video frame)
Interleave, preload duration     : 500 ms

Audio #2
ID                               : 2
Format                           : AC-3
Format/Info                      : Audio Coding 3
Codec ID                         : 2000
Duration                         : 1h 48mn
Bit rate mode                    : Constant
Bit rate                         : 384 Kbps
Channel(s)                       : 6 channels
Channel positions                : Front: L C R, Surround: L R, LFE
Sampling rate                    : 48.0 KHz
Stream size                      : 298 MiB (13%)
Alignment                        : Split accross interleaves
Interleave, duration             : 42 ms (1.00 video frame)
Interleave, preload duration     : 500 ms

Семпл: http://multi-up.com/764816

Релиз группы:

picpicpic
Для увеличения картинки щелкните мышкой по превью


Ультиматум Борна / The Bourne Ultimatum


Год выпуска: 2007
Жанр: боевик, триллер, криминал
Страна: США , Германия
Режиссер: Пол Гринграсс
В ролях: Мэтт Дэймон, Джулия Стайлз, Дэвид Стрэтэйрн, Скотт Гленн, Пэдди Консидайн, Эдгар Рамирез, Альберт Финни, Джоан Аллен, Том Гэллоп, Кори Джонсон
Сюжет фильма:
Он хотел одного — исчезнуть. Вместо этого за Борном теперь охотятся люди, которые сделали его таким, какой он есть. Он потерял память и человека, которого он любил. Но его не удается сдержать даже новому поколению профессиональных убийц. У него только одна цель: вернуться к началу и узнать кем он был, Джейсон Борн.

Он мечется от Москвы к Парижу, через Мадрид и Лондон в Танжер и Нью-Йорк, пытаясь раскрыть последние загадки своего прошлого, в то время, как правительственные агенты и Интерпол пытаются помешать ему восстановить всю картину до конца.

  • Мировая премьера: 25 июля 2007
  • Российская премьера: 23 августа 2007, «UPI»


Качество видео: BDRip [HANSMER / Blu-Ray Remux / 1080p]

Продолжительность: 01:55:19
Формат: avi
Видео: XviD, 720x304, 1921 kbps
Аудио #1: русский, дублированный [лицензия], AC3 5.1, 384 kbps
Аудио #2: английский, оригинал, AC3 5.1, 384 kbps

Код:

General
Complete name                    : D:\Video\Movies\Bourne\Ultimatum.Borna.2007.DUAL.BDRip.XviD.AC3.-HQCLUB.avi
Format                           : AVI
Format/Info                      : Audio Video Interleave
Format profile                   : OpenDML
File size                        : 2.18 GiB
Duration                         : 1h 55mn
Overall bit rate                 : 2 708 Kbps
Movie name                       : Ультиматум Борна / The Bourne Ultimatum (2007) BDRip
Director                         : Gellard
Writing application              : VirtualDubModRus 1.5.10.2 (build 2542/release)
Copyright                        : http://hqclub.net/
Comment                          : 10.08.2010

Video
ID                               : 0
Format                           : MPEG-4 Visual
Format profile                   : Streaming Video@L1
Format settings, BVOP            : Yes
Format settings, QPel            : No
Format settings, GMC             : No warppoints
Format settings, Matrix          : Custom
Codec ID                         : XVID
Codec ID/Hint                    : XviD
Duration                         : 1h 55mn
Bit rate                         : 1 922 Kbps
Width                            : 720 pixels
Height                           : 304 pixels
Display aspect ratio             : 2.35
Frame rate                       : 23.976 fps
Resolution                       : 24 bits
Colorimetry                      : 4:2:0
Scan type                        : Progressive
Bits/(Pixel*Frame)               : 0.366
Stream size                      : 1.55 GiB (71%)
Writing library                  : XviD 1.2.1 (UTC 2008-12-04)

Audio #1
ID                               : 1
Format                           : AC-3
Format/Info                      : Audio Coding 3
Codec ID                         : 2000
Duration                         : 1h 55mn
Bit rate mode                    : Constant
Bit rate                         : 384 Kbps
Channel(s)                       : 6 channels
Channel positions                : Front: L C R, Surround: L R, LFE
Sampling rate                    : 48.0 KHz
Stream size                      : 317 MiB (14%)
Alignment                        : Split accross interleaves
Interleave, duration             : 42 ms (1.00 video frame)
Interleave, preload duration     : 500 ms

Audio #2
ID                               : 2
Format                           : AC-3
Format/Info                      : Audio Coding 3
Codec ID                         : 2000
Duration                         : 1h 55mn
Bit rate mode                    : Constant
Bit rate                         : 384 Kbps
Channel(s)                       : 6 channels
Channel positions                : Front: L C R, Surround: L R, LFE
Sampling rate                    : 48.0 KHz
Stream size                      : 317 MiB (14%)
Alignment                        : Split accross interleaves
Interleave, duration             : 42 ms (1.00 video frame)
Interleave, preload duration     : 500 ms

Семпл: http://multi-up.com/764828

Релиз группы:

picpicpic
Для увеличения картинки щелкните мышкой по превью

Этот торрент недоступен для скачивания без регистрации, однако доступен по публичной magnet-ссылке (источники с публичных трекеров). Перед использованием ссылки прочтите, пожалуйста Пользовательское соглашение, а также как можно дольше оставайтесь на раздаче! Для того, чтобы скачать сам торрент-файл (который видит больше источников), а также для того, чтобы поблагодарить релизера, вам необходимо зарегистрироваться. Если регистрироваться лень - вы можете также попробовать скачать релиз по нашим партнерским ссылкам ниже.

[underverse.su].t20121.torrent
Трекер: Зарегистрирован   [ 23.09.2012 19:21 ]  

Статус: проверено (by garry at 23.09.2012 19:27)
Поблагодарили: 2 человека
Тип торрента: публичный - доступные источники с открытых трекеров: 
Размер: 6,55 GB (занимает 1,5 DVDR, для записи нужно 2 болванки DVDR/RW)
 
 
Похожие темы
Форум Тема Автор Торрент Отв. Посл. сооб.
Зарубежное кино [DVDRip, Low-Res HDRip, и т.д.] Идентификация Борна / The Bourne Identity (Даг Лайман / Doug Liman) [2002 г., боевик, триллер, криминал, BDRip] Dub 90ytr90
14 | 0

0 | 275

16

31.01.2015 21:33

Звуковые дорожки lossless и True-HD Идентификация Борна / The Bourne Identity (2002) [DTS-HD 5.1, 4210 kbps, RUS] Dub 11ivan11
0 | 1

0 | 583

0

27.05.2016 17:26

nravstvennik Пол:Муж

10-Окт-2013 14:46

:)

Яндекс.Метрика powered by Sphinx


В Н И М А Н И Е
Сайт не распространяет и не хранит электронные версии произведений, а лишь бесплатно и без коммерческой выгоды (не требуя взамен платы,
SMS и т.д.) предоставляет доступ к создаваемому пользователями каталогу ссылок на торрент-файлы, которые содержат только списки хеш-сумм.
Убедительная просьба с жалобами обращаться напрямую к пользователю, разместившему торрент файл.

Вверх