Loading...
Error

Джиперс Криперс / Jeepers Creepers (Виктор Сальва) [2001 г., ужасы, детектив, BDRip] Dub

Статистика раздачи
Размер:  1,45 GB   |    Зарегистрирован:  4 года 2 месяца   |    Скачан:  9 раз

Полного источника не было: 2 месяца 7 дней

Сидов:  0  |  0 KB/s  ]   Личеров:  0  |  0 KB/s  ]

* - сиды/пиры с внешних источников

   
 
Автор Сообщение

garry Пол:Муж

23-Сен-2012 15:52

Джиперс Криперс / Jeepers Creepers


Год выпуска: 2001
Жанр: ужасы, детектив
Страна: Германия , США
Режиссер: Виктор Сальва
В ролях: Джина Филипс, Джастин Лонг, Джонатан Брек, Патриция Белчер, Айлин Бреннан, Брэндон Смит, Пегги Шеффилд, Джеффри Уильям Эванс, Патрик Черри, Джон Бешара
Сюжет фильма:
Сделав ужасное открытие в подвале старой заброшенной церкви, Триш и ее брат Дэрри едут домой. Но обычное ежедневное путешествие на машине оборачивается ужасающей гонкой, приз в которой — их жизни.

Тинейджеров преследует неуничтожимая сила, охотящаяся на них с азартом хитрого хищника, обнаруживая в названии старой песенки «Jeepers Creepers» бездны нового смысла самого ужасного свойства.

  • Мировая премьера: 20 июля 2001
  • Российская премьера: 18 октября 2001, «Космопол ФД»


Качество видео: BDRip

Продолжительность: 01:30:39
Формат: avi
Видео: XviD, 704x384, 1835 kbps
Аудио: русский, дублированный [лицензия], AC3 5.1, 448 kbps

Код:

General
Complete name                    : D:\Video\Movies\Dzhipers.Kripers.2001.RUS.BDRip.XviD.AC3.-HQCLUB.avi
Format                           : AVI
Format/Info                      : Audio Video Interleave
File size                        : 1.45 GiB
Duration                         : 1h 30mn
Overall bit rate                 : 2 293 Kbps
Movie name                       : Джиперс Криперс / Jeepers Creepers (2001)
Director                         : SiriuS1509
Genre                            : Horror/Mystery
Writing application              : VirtualDubMod 1.5.10.2 (build 2540/release)
Copyright                        : http://hqclub.net
Comment                          : R.G. HQClub

Video
ID                               : 0
Format                           : MPEG-4 Visual
Format profile                   : Streaming Video@L1
Format settings, BVOP            : Yes
Format settings, QPel            : No
Format settings, GMC             : No warppoints
Format settings, Matrix          : Custom
Codec ID                         : XVID
Codec ID/Hint                    : XviD
Duration                         : 1h 30mn
Bit rate                         : 1 835 Kbps
Width                            : 704 pixels
Height                           : 384 pixels
Display aspect ratio             : 16/9
Frame rate                       : 23.976 fps
Resolution                       : 24 bits
Colorimetry                      : 4:2:0
Scan type                        : Progressive
Bits/(Pixel*Frame)               : 0.283
Stream size                      : 1.16 GiB (80%)
Writing library                  : XviD 64

Audio
ID                               : 1
Format                           : AC-3
Format/Info                      : Audio Coding 3
Codec ID                         : 2000
Duration                         : 1h 30mn
Bit rate mode                    : Constant
Bit rate                         : 448 Kbps
Channel(s)                       : 6 channels
Channel positions                : Front: L C R, Surround: L R, LFE
Sampling rate                    : 48.0 KHz
Stream size                      : 290 MiB (20%)
Alignment                        : Split accross interleaves
Interleave, duration             : 42 ms (1.00 video frame)
Interleave, preload duration     : 500 ms

Семпл: http://multi-up.com/764724

Релиз группы:

picpicpic
Для увеличения картинки щелкните мышкой по превью

Этот торрент недоступен для скачивания без регистрации, однако доступен по публичной magnet-ссылке (источники с публичных трекеров). Перед использованием ссылки прочтите, пожалуйста Пользовательское соглашение, а также как можно дольше оставайтесь на раздаче! Для того, чтобы скачать сам торрент-файл (который видит больше источников), а также для того, чтобы поблагодарить релизера, вам необходимо зарегистрироваться. Если регистрироваться лень - вы можете также попробовать скачать релиз по нашим партнерским ссылкам ниже.

[underverse.su].t20117.torrent
Трекер: Зарегистрирован   [ 23.09.2012 15:52 ]  

Статус: проверено (by garry at 23.09.2012 15:52)
Поблагодарили: 1 человек
Тип торрента: публичный - доступные источники с открытых трекеров: 
Размер: 1,45 GB (занимает 1/3 DVDR, для записи нужно 1 болванка DVDR/RW)
 
 

theatre Пол:Муж

23-Сен-2012 15:56

спасибо таким фильмам за бессонные ночи в детстве)

Яндекс.Метрика powered by Sphinx


В Н И М А Н И Е
Сайт не распространяет и не хранит электронные версии произведений, а лишь бесплатно и без коммерческой выгоды (не требуя взамен платы,
SMS и т.д.) предоставляет доступ к создаваемому пользователями каталогу ссылок на торрент-файлы, которые содержат только списки хеш-сумм.
Убедительная просьба с жалобами обращаться напрямую к пользователю, разместившему торрент файл.

Вверх