Loading...
Error

Отстегните ремни /Серии:1-8 из 8 (Ольга Перуновская) [2012 г., Мелодрама, Криминал, SATRip]

Статистика раздачи
Размер:  4,28 GB   |    Зарегистрирован:  4 года 2 месяца   |    Скачан:  2 раза

Полного источника не было: 2 года

Сидов:  0  |  0 KB/s  ]   Личеров:  0  |  0 KB/s  ]

* - сиды/пиры с внешних источников

   
 
Автор Сообщение

nemos Пол:Муж

21-Сен-2012 20:50

Отстегните ремни / Серии: 1-8 из 8


Год выпуска: 2012
Жанр: Мелодрама, Криминал
Страна: Россия
Режиссер: Ольга Перуновская
В ролях: Екатерина Редникова, Марат Башаров, Виктор Вержбицкий, Гундарс Аболиньш, Юрис Жагарс
Сюжет фильма:
Сценарий сериала написан по мотивам известного романа Катерины Кириченко. По сюжету, в тяжелые 90е годы главная героиня истории Ксения эмигрировала в Нидерланды, а через двадцать лет решила вернуться на родину, в Москву. Причина - начинающийся роман с крупным российским бизнесменом Максимом. Ксения приезжает в загородный дом Максима, чтобы провести романтический вечер с любимым. Но внезапно Макса якобы вызывают на работу, а в дом врываются бандиты и пытаются украсть его маленькую дочь Дашу. Но отважной Ксении удается сбежать вместе с ребенком. Все деньги, документы и телефоны остались в особняке. За Ксенией с ребенком охотятся рейдеры, милиция объявила ее в розыск, а бывшая жена Макса, мать Даши, оказывается заодно с бандитами… Так короткий двухнедельный визит в родную страну превращается в бег с препятствиями… Сможет ли героиня спасти ребенка, бизнес любимого человека, обрести семью, счастье и спокойствие?


Качество видео: SatRip

Продолжительность: 00:42:58 серия
Формат: AVI
Видео: DivX, 704 x 368, 1548kbps
Аудио: русский, MP3 2.0, 128 kbps

Код:

E:\СКАЧКИ\С underverse\Отстегните ремни 2012\Отстегните ремни.08.2012. SATRip.avi
   General
      Complete name : E:\СКАЧКИ\С underverse\Отстегните ремни 2012\Отстегните ремни.08.2012. SATRip.avi
      Format : AVI
      Format/Info : Audio Video Interleave
      File size : 518 MiB
      Duration : 42mn 58s
      Overall bit rate : 1 686 Kbps
      Writing library : VirtualDub build 18160/release
   Video #0
      ID : 0
      Format : MPEG-4 Visual
      Format settings, BVOP : 1
      Format settings, QPel : No
      Format settings, GMC : No warppoints
      Format settings, Matrix : Default (H.263)
      Muxing mode : Packed bitstream
      Codec ID : DX50
      Codec ID/Hint : DivX 5
      Duration : 42mn 58s
      Bit rate : 1 548 Kbps
      Width : 704 pixels
      Height : 368 pixels
      Display aspect ratio : 1.913
      Frame rate : 25.000 fps
      Color space : YUV
      Chroma subsampling : 4:2:0
      Bit depth : 8 bits
      Scan type : Progressive
      Compression mode : Lossy
      Bits/(Pixel*Frame) : 0.239
      Stream size : 476 MiB (92%)
      Writing library : DivX 3013
   Audio #1
      ID : 1
      Format : MPEG Audio
      Format version : Version 1
      Format profile : Layer 3
      Codec ID : 55
      Codec ID/Hint : MP3
      Duration : 42mn 58s
      Bit rate mode : Constant
      Bit rate : 128 Kbps
      Channel(s) : 2 channels
      Sampling rate : 44.1 KHz
      Compression mode : Lossy
      Stream size : 39.3 MiB (8%)
      Alignment : Split accross interleaves
      Interleave, duration : 40 ms (1.00 video frame)
      Interleave, preload duration : 500 ms
      Writing library : LAME3.90.3
Семпл: http://tempfile.ru/file/2529433

picpicpicpicpicpic
Для увеличения картинки щелкните мышкой по превью

Этот торрент недоступен для скачивания без регистрации, однако доступен по публичной magnet-ссылке (источники с публичных трекеров). Перед использованием ссылки прочтите, пожалуйста Пользовательское соглашение, а также как можно дольше оставайтесь на раздаче! Для того, чтобы скачать сам торрент-файл (который видит больше источников), а также для того, чтобы поблагодарить релизера, вам необходимо зарегистрироваться. Если регистрироваться лень - вы можете также попробовать скачать релиз по нашим партнерским ссылкам ниже.

[underverse.su].t20055.torrent
Трекер: Зарегистрирован   [ 21.09.2012 20:50 ]  

Статус: проверено (by garry at 22.09.2012 09:05)
Поблагодарили: пока никто не поблагодарил...
Тип торрента: публичный - доступные источники с открытых трекеров: 
Размер: 4,28 GB (занимает 0,98 DVDR, для записи нужно 1 болванка DVDR/RW)
 
 


Последний раз редактировалось: nemos (22.09.2012 07:39), всего редактировалось 1 раз

Яндекс.Метрика powered by Sphinx


В Н И М А Н И Е
Сайт не распространяет и не хранит электронные версии произведений, а лишь бесплатно и без коммерческой выгоды (не требуя взамен платы,
SMS и т.д.) предоставляет доступ к создаваемому пользователями каталогу ссылок на торрент-файлы, которые содержат только списки хеш-сумм.
Убедительная просьба с жалобами обращаться напрямую к пользователю, разместившему торрент файл.

Вверх