Loading...
Error

Белоснежка и охотник / Snow White and the Huntsman (Руперт Сандерс) [2012 г., фэнтези, боевик, драма, приключения, HDRip] Dub + Original Eng(ext) + Sub(Rus,Eng) HQ Underverse

Статистика раздачи
Размер:  2,17 GB   |    Зарегистрирован:  4 года 2 месяца   |    Скачан:  61 раз

Полного источника не было: 3 часа

Сидов:  0  |  0 KB/s  ]   Личеров:  0  |  0 KB/s  ]

* - сиды/пиры с внешних источников

   
 
Автор Сообщение

HQ Underverse 

21-Сен-2012 13:09

Белоснежка и охотник / Snow White and the Huntsman


Год выпуска: 2012
Жанр: фэнтези, боевик, драма, приключения
Страна: США
Режиссер: Руперт Сандерс
В ролях: Кристен Стюарт, Крис Хемсворт, Шарлиз Терон, Сэм Клафлин, Сэм Спруэлл, Иэн МакШейн, Боб Хоскинс, Рэй Уинстон, Ник Фрост, Эдди Марсан
Сюжет фильма:
Тьма приближается. Она прячется в лесах, спускается с гор, застилает небо. Никто не укроется от магического зеркала Королевы, живущей в неприступном замке, охраняемом бесчисленной армией. Но над Белоснежкой злые чары не властны. И тогда Королева отправляет Охотника, чтобы он принес ей сердце соперницы. Но очарованный Белоснежкой, он встает на ее сторону. Грядет великая битва. Лишь одна будет править.

  • Мировая премьера: 30 мая 2012
  • Российская премьера: 14 июня 2012, «UPI»

/
Качество видео: HDRip

Продолжительность: 02:07:15
Формат: avi
Видео: XviD, 720x304, 2042 kbps
Аудио #1: русский, дублированный [лицензия], AC3 5.1, 384 kbps
Аудио #2: английский, оригинал, AC3 5.1, 384 kbps (отдельным файлом: здесь)
Субтитры #1: внешние, SRT, английский (на narod.ru)
Субтитры #2: внешние, SRT, русский (на narod.ru)

Код:

General
Complete name                    : Z:\Видео\HQ\Белоснежка и охотник\Snow.White.And.Huntsman.2012.HDRip.XviD.AC3.Rus.D.HQ.Underverse.avi
Format                           : AVI
Format/Info                      : Audio Video Interleave
Format profile                   : OpenDML
File size                        : 2.17 GiB
Duration                         : 2h 7mn
Overall bit rate                 : 2 438 Kbps
Writing application              : VirtualDubMod 1.5.10.2 (build 2542/release)
Writing library                  : VirtualDubMod build 2542/release

Video
ID                               : 0
Format                           : MPEG-4 Visual
Format profile                   : Streaming Video@L1
Format settings, BVOP            : Yes
Format settings, QPel            : No
Format settings, GMC             : No warppoints
Format settings, Matrix          : Custom
Muxing mode                      : Packed bitstream
Codec ID                         : XVID
Codec ID/Hint                    : XviD
Duration                         : 2h 7mn
Bit rate                         : 2 042 Kbps
Width                            : 720 pixels
Height                           : 304 pixels
Display aspect ratio             : 2.35
Frame rate                       : 23.976 fps
Resolution                       : 24 bits
Colorimetry                      : 4:2:0
Scan type                        : Progressive
Bits/(Pixel*Frame)               : 0.389
Stream size                      : 1.82 GiB (84%)
Writing library                  : XviD 64

Audio
ID                               : 1
Format                           : AC-3
Format/Info                      : Audio Coding 3
Codec ID                         : 2000
Duration                         : 2h 7mn
Bit rate mode                    : Constant
Bit rate                         : 384 Kbps
Channel(s)                       : 6 channels
Channel positions                : Front: L C R, Surround: L R, LFE
Sampling rate                    : 48.0 KHz
Stream size                      : 350 MiB (16%)
Alignment                        : Split accross interleaves
Interleave, duration             : 42 ms (1.00 video frame)
Interleave, preload duration     : 500 ms

General
Complete name                    : Z:\Видео\HQ\Белоснежка и охотник\Snow.White.And.Huntsman.2012.HDRip.XviD.AC3.Rus.D.HQ.Underverse.ENG.ac3
Format                           : AC-3
Format/Info                      : Audio Coding 3
File size                        : 350 MiB
Duration                         : 2h 7mn
Overall bit rate                 : 384 Kbps

Audio
Format                           : AC-3
Format/Info                      : Audio Coding 3
Duration                         : 2h 7mn
Bit rate mode                    : Constant
Bit rate                         : 384 Kbps
Channel(s)                       : 6 channels
Channel positions                : Front: L C R, Surround: L R, LFE
Sampling rate                    : 48.0 KHz
Stream size                      : 350 MiB (100%)

Семпл: http://multi-up.com/763630

Релиз группы:

picpicpic
Для увеличения картинки щелкните мышкой по превью

Этот торрент недоступен для скачивания без регистрации, однако доступен по публичной magnet-ссылке (источники с публичных трекеров). Перед использованием ссылки прочтите, пожалуйста Пользовательское соглашение, а также как можно дольше оставайтесь на раздаче! Для того, чтобы скачать сам торрент-файл (который видит больше источников), а также для того, чтобы поблагодарить релизера, вам необходимо зарегистрироваться. Если регистрироваться лень - вы можете также попробовать скачать релиз по нашим партнерским ссылкам ниже.

[underverse.su].t20029.torrent
Трекер: Зарегистрирован   [ 21.09.2012 13:09 ]  

Статус: проверено (by garry at 21.09.2012 14:18)
Поблагодарили: 7 человек
Тип торрента: публичный - доступные источники с открытых трекеров: 
Размер: 2,17 GB (занимает 1/2 DVDR, для записи нужно 1 болванка DVDR/RW)
 
 
Похожие темы
Форум Тема Автор Торрент Отв. Посл. сооб.
Зарубежное кино [DVDRip, Low-Res HDRip, и т.д.] Белоснежка: Месть гномов / Mirror Mirror (Тарсем Синх) [2012 г., фэнтези, драма, комедия, приключения, HDRip] [лицензия] RG NewCinema
1 | 0

2 | 1149

139

05.10.2012 11:32

Зарубежное кино [DVDRip, Low-Res HDRip, и т.д.] Белоснежка и охотник / Snow White and the Huntsman (Руперт Сандерс) [2012 г., фэнтези, боевик, драма, приключения, HDRip] Dub + Original 90ytr90
1 | 0

2 | 697

50

05.10.2012 11:34

Зарубежное кино [DVDRip, Low-Res HDRip, и т.д.] Белоснежка и принц эльфов / Grimm`s Snow White (Рэйчел Голденберг) [2012 г., фэнтези, приключения, DVDRip] RG NewCinema
0 | 0

0 | 1659

32

23.06.2012 08:48

Зарубежное кино [DVDRip, Low-Res HDRip, и т.д.] Белоснежка и охотник / Snow White and the Huntsman [Extended] (Руперт Сандерс) [2012 г., фэнтези, боевик, драма, приключения, HDRip] Dub 90ytr90
1 | 0

1 | 702

44

05.01.2013 03:56

Зарубежное кино [DVDRip, Low-Res HDRip, и т.д.] Белоснежка: Смертельное лето / Snow White: A Deadly Summer (Дэвид ДеКото) [2012 г., ужасы, HDRip] VO [Андрей Дольский] RG NewCinema
1 | 0

1 | 987

20

27.10.2012 12:43

Зарубежное кино [DVDRip, Low-Res HDRip, и т.д.] Белоснежка и охотник [Театральная версия] / Snow White and the Huntsman [Theatrical Cut] (Руперт Сандерс) [2012 г., фэнтези, боевик, драма, приключения, HDRip] Dub Garnett
17 | 0

0 | 671

18

07.12.2012 13:10

Зарубежное кино [DVDRip, Low-Res HDRip, и т.д.] Белоснежка и охотник [Расширенная версия] / Snow White and the Huntsman [Extended Cut] (Руперт Сандерс) [2012 г., фэнтези, боевик, драма, приключения, BDRip-AVC] Dub + Subs (rus, eng) Garnett
474 | 1

1 | 1662

68

29.01.2013 10:32

Зарубежное кино [DVDRip, Low-Res HDRip, и т.д.] Белоснежка и Охотник 2 / The Huntsman: Winter's War (Седрик Николя-Троян / Cedric Nicolas-Troyan) [2016 г., фэнтези, приключения, BDRip] [Extended Cut] Dub + hardsub (Rus) 90ytr90
57 | 4

0 | 461

5

08.08.2016 16:28

Зарубежное кино [DVDRip, Low-Res HDRip, и т.д.] Белоснежка и Охотник 2 / The Huntsman: Winter's War (Седрик Николя-Троян / Cedric Nicolas-Troyan) [2016 г., фэнтези, приключения, BDRip] [Theatrical Cut] Dub + hardsub (Rus) 90ytr90
17 | 2

0 | 497

4

08.08.2016 16:40

Зарубежное кино [DVDRip, Low-Res HDRip, и т.д.] Белоснежка и Охотник 2 / The Huntsman: Winter's War (Седрик Николя-Троян / Cedric Nicolas-Troyan) [2016 г., фэнтези, приключения, BDRip] [Extended Cut] Dub 90ytr90
179 | 6

0 | 464

10

11.08.2016 19:51

mongol 

30-Сен-2012 09:49

кто смотрел, как кино?

conspop 

08-Окт-2012 09:51

Снято все красиво, но сюжет совсем детский, вообщем сказка. Разок посмотреть можно, особенно с детками.

savilya60 Пол:Муж

10-Окт-2012 07:12

Люблю смотреть сказки... :Rose:

Яндекс.Метрика powered by Sphinx


В Н И М А Н И Е
Сайт не распространяет и не хранит электронные версии произведений, а лишь бесплатно и без коммерческой выгоды (не требуя взамен платы,
SMS и т.д.) предоставляет доступ к создаваемому пользователями каталогу ссылок на торрент-файлы, которые содержат только списки хеш-сумм.
Убедительная просьба с жалобами обращаться напрямую к пользователю, разместившему торрент файл.

Вверх