Loading...
Error

Опережая выстрел / Серии: 1-8 из 8 (Михаил Хлебородов) [2012 г., Боевик, Мелодрама, SATRip]

Статистика раздачи
Размер:  4,76 GB   |    Зарегистрирован:  4 года 2 месяца   |    Скачан:  11 раз

Полного источника не было: 1 год 11 месяцев

Сидов:  0  |  0 KB/s  ]   Личеров:  0  |  0 KB/s  ]

* - сиды/пиры с внешних источников

   
 
Автор Сообщение

nemos Пол:Муж

20-Сен-2012 16:41

Опережая выстрел / Серии: 1-8 из 8 [Михаил Хлебородов]


Год выпуска: 2012
Жанр: Боевик, Мелодрама
Страна: Россия
Режиссер: Михаил Хлебородов
В ролях: Алексей Янин, Андрей Феськов, Екатерина Федулова, Евгений Миллер, Александр Голубков, Катерина Шпица, Виктория Маслова, Наталья Земцова, Настасья Самбурская, Сергей Оганесян
Сюжет фильма:
Отряд милиции специального назначения или просто СОБР. Сюда возьмут не каждого, здесь свои традиции и свои законы. Они умеют все, они не знают слова «невозможно», и лучше не вставать на их пути. Они действуют со скоростью пули и бьют без промаха. И кому, как не им, известно — что быстрее выстрела и поражает гораздо сильнее… Нет оружия, способного опередить любовь…


Качество видео: SatRip

Продолжительность: 00:52:26 серия
Формат: AVI
Видео: DivX, 704 x 400, 1501 kbps
Аудио: русский, MP3 2.0, 192 kbps

Код:

E:\СКАЧКИ\С underverse\Опережая выстрел.2012.SATRip\Опережая выстрел.08.avi
   General
      Complete name : E:\СКАЧКИ\С underverse\Опережая выстрел.2012.SATRip\Опережая выстрел.08.avi
      Format : AVI
      Format/Info : Audio Video Interleave
      File size : 638 MiB
      Duration : 52mn 26s
      Overall bit rate : 1 702 Kbps
      Writing application : VirtualDubModRus 1.5.10.1 (build 2439/release)
      Writing library : VirtualDubMod build 2439/release
   Video #0
      ID : 0
      Format : MPEG-4 Visual
      Format settings, BVOP : Yes
      Format settings, QPel : No
      Format settings, GMC : No warppoints
      Format settings, Matrix : Default (H.263)
      Muxing mode : Packed bitstream
      Codec ID : DX50
      Codec ID/Hint : DivX 5
      Duration : 52mn 26s
      Bit rate : 1 501 Kbps
      Width : 704 pixels
      Height : 400 pixels
      Display aspect ratio : 16:9
      Frame rate : 25.000 fps
      Color space : YUV
      Chroma subsampling : 4:2:0
      Bit depth : 8 bits
      Scan type : Progressive
      Bits/(Pixel*Frame) : 0.213
      Stream size : 563 MiB (88%)
      Writing library : DivX 6.8.5 (UTC 2009-08-20)
   Audio #1
      ID : 1
      Format : MPEG Audio
      Format version : Version 1
      Format profile : Layer 2
      Codec ID : 50
      Duration : 52mn 26s
      Bit rate mode : Constant
      Bit rate : 192 Kbps
      Channel(s) : 2 channels
      Sampling rate : 48.0 KHz
      Stream size : 72.0 MiB (11%)
      Alignment : Aligned on interleaves
      Interleave, duration : 40 ms (1.00 video frame)
      Interleave, preload duration : 504 ms
Семпл: http://multi-up.com/763248

picpicpicpicpicpicpicpicpicpicpicpicpicpic
Для увеличения картинки щелкните мышкой по превью

Этот торрент недоступен для скачивания без регистрации, однако доступен по публичной magnet-ссылке (источники с публичных трекеров). Перед использованием ссылки прочтите, пожалуйста Пользовательское соглашение, а также как можно дольше оставайтесь на раздаче! Для того, чтобы скачать сам торрент-файл (который видит больше источников), а также для того, чтобы поблагодарить релизера, вам необходимо зарегистрироваться. Если регистрироваться лень - вы можете также попробовать скачать релиз по нашим партнерским ссылкам ниже.

[underverse.su].t20208.torrent
Трекер: Зарегистрирован   [ 28.09.2012 15:10 ]  

Статус: проверено (by garry at 28.09.2012 15:21)
Поблагодарили: пока никто не поблагодарил...
Тип торрента: публичный - доступные источники с открытых трекеров: 
Размер: 4,76 GB (занимает 1,09 DVDR, для записи нужно 2 болванки DVDR/RW)
 
 


Последний раз редактировалось: nemos (28.09.2012 15:10), всего редактировалось 3 раз(а)

nemos Пол:Муж

21-Сен-2012 14:10

ОБНОВЛЕНА

nemos Пол:Муж

28-Сен-2012 15:12

Обновлена

Яндекс.Метрика powered by Sphinx


В Н И М А Н И Е
Сайт не распространяет и не хранит электронные версии произведений, а лишь бесплатно и без коммерческой выгоды (не требуя взамен платы,
SMS и т.д.) предоставляет доступ к создаваемому пользователями каталогу ссылок на торрент-файлы, которые содержат только списки хеш-сумм.
Убедительная просьба с жалобами обращаться напрямую к пользователю, разместившему торрент файл.

Вверх