Loading...
Error

Верхом на пуле / Riding the Bullet (Мик Гэррис) [2004 г., ужасы, триллер, DVDRip] DVO + AVO + Original

Статистика раздачи
Размер:  2,35 GB   |    Зарегистрирован:  4 года 2 месяца   |    Скачан:  8 раз

Полного источника не было: 2 года 5 месяцев

Сидов:  0  |  0 KB/s  ]   Личеров:  0  |  0 KB/s  ]

* - сиды/пиры с внешних источников

   
 
Автор Сообщение

DarkAngel Пол:Муж

20-Сен-2012 16:16

Верхом на пуле / Riding the Bullet


Год выпуска: 2004
Жанр: ужасы, триллер
Страна: США
Режиссер: Мик Гэррис
В ролях: Джонатан Джексон, Дэвид Аркетт, Клифф Робертсон, Барбара Херши, Эрика Кристенсен, Бэрри В. Леви, Jackson Warris, Джеффри Баллард, Питер ЛаКруа, Крис Готье
Сюжет фильма:
Чтобы скорее навестить свою мать в больнице, Алан решает добираться автостопом, надеясь, что на глухих проселочных дорогах ему повезет с попутчиками. Для парня с богатым воображением путь навстречу неизвестности может стать захватывающим приключением, но Алан одержим смертью, и в эту ночь она станет его невидимым спутником.

Только она будет решать, кто повстречается Алану на полуночном шоссе, где царит зловещая тишина и кажется, что блестящая гладь асфальта ведет прямиком в ад…

  • Мировая премьера: 15 октября 2004


Качество видео: DVDRip

Продолжительность: 01:35:01
Формат: AVI
Видео: XviD, 720x400 (1.80:1), ~2191 kbps
Аудио #1: русский, двухголосый закадровый [профессиональный], AC3 5.1, ~448.00 kbps
Аудио #2: русский, одноголосый закадровый [авторский(Антон Карповский)], AC3 5.1, ~448.00 kbps
Аудио #3: английский, оригинал, AC3 5.1, ~448.00 kbps

Субтитры:
внешние, SRT (русский язык)
внешние, SRT (английский язык)

Код:

General
       Complete name : riding.the.bullet.DVDRip.Widescreen.XviD.DD5.1.2004.avi
       Format : AVI
       Format/Info : Audio Video Interleave
       Format profile : OpenDML
       File size : 2.35 GiB
       Duration : 1h 35mn
       Overall bit rate : 3 542 Kbps
       Movie name : Riding the Bullet
       Genre : Horror
       Writing application : VirtualDubMod 1.5.10.2 (build 2542/release)
       Writing library : VirtualDubMod build 2542/release
       Original source form/Name : Movie
    Video #0
       ID : 0
       Format : MPEG-4 Visual
       Format profile : AdvancedSimple@L5
       Format settings, BVOP : Yes
       Format settings, QPel : No
       Format settings, GMC : No warppoints
       Format settings, Matrix : Default (MPEG)
       Muxing mode : Packed bitstream
       Codec ID : XVID
       Codec ID/Hint : XviD
       Duration : 1h 35mn
       Bit rate : 2 175 Kbps
       Width : 720 pixels
       Height : 400 pixels
       Display aspect ratio : 16:9
       Frame rate : 25.000 fps
       Resolution : 24 bits
       Colorimetry : 4:2:0
       Scan type : Progressive
       Bits/(Pixel*Frame) : 0.302
       Stream size : 1.44 GiB (61%)
       Writing library : XviD 61
    Audio #1
       ID : 1
       Format : AC-3
       Format/Info : Audio Coding 3
       Codec ID : 2000
       Duration : 1h 35mn
       Bit rate mode : Constant
       Bit rate : 448 Kbps
       Channel(s) : 6 channels
       Channel positions : Front: L C R, Surround: L R, LFE
       Sampling rate : 48.0 KHz
       Stream size : 304 MiB (13%)
       Alignment : Split accross interleaves
       Interleave, duration : 40 ms (1.00 video frame)
       Interleave, preload duration : 500 ms
    Audio #2
       ID : 2
       Format : AC-3
       Format/Info : Audio Coding 3
       Codec ID : 2000
       Duration : 1h 35mn
       Bit rate mode : Constant
       Bit rate : 448 Kbps
       Channel(s) : 6 channels
       Channel positions : Front: L C R, Surround: L R, LFE
       Sampling rate : 48.0 KHz
       Stream size : 304 MiB (13%)
       Alignment : Split accross interleaves
       Interleave, duration : 40 ms (1.00 video frame)
       Interleave, preload duration : 500 ms
    Audio #3
       ID : 3
       Format : AC-3
       Format/Info : Audio Coding 3
       Codec ID : 2000
       Duration : 1h 35mn
       Bit rate mode : Constant
       Bit rate : 448 Kbps
       Channel(s) : 6 channels
       Channel positions : Front: L C R, Surround: L R, LFE
       Sampling rate : 48.0 KHz
       Stream size : 304 MiB (13%)
       Alignment : Split accross interleaves
       Interleave, duration : 40 ms (1.00 video frame)
       Interleave, preload duration : 500 ms
Семпл: http://multi-up.com/416461

picpicpic
Для увеличения картинки щелкните мышкой по превью

Этот торрент недоступен для скачивания без регистрации, однако доступен по публичной magnet-ссылке (источники с публичных трекеров). Перед использованием ссылки прочтите, пожалуйста Пользовательское соглашение, а также как можно дольше оставайтесь на раздаче! Для того, чтобы скачать сам торрент-файл (который видит больше источников), а также для того, чтобы поблагодарить релизера, вам необходимо зарегистрироваться. Если регистрироваться лень - вы можете также попробовать скачать релиз по нашим партнерским ссылкам ниже.

[underverse.su].t20010.torrent
Трекер: Зарегистрирован   [ 20.09.2012 16:16 ]  

Статус: проверено (by Паукан at 22.09.2012 21:26)
Поблагодарили: пока никто не поблагодарил...
Тип торрента: публичный - доступные источники с открытых трекеров: 
Размер: 2,35 GB (занимает 0,54 DVDR, для записи нужно 1 болванка DVDR/RW)
 
 


Последний раз редактировалось: DarkAngel (22.09.2012 21:02), всего редактировалось 1 раз

Паукан Пол:Муж

20-Сен-2012 16:24

Внутри торрента есть еще субтитры, необходимо указать, какие именно.

21-Сен-2012 17:28

Топик был перенесен из форума Зарубежное кино [DVDRip, Low-Res HDRip, и т.д.] в форум Отстойник


gari
 

22-Сен-2012 21:26

Топик был перенесен из форума Отстойник в форум Зарубежное кино [DVDRip, Low-Res HDRip, и т.д.]


dj_maxx
 

Яндекс.Метрика powered by Sphinx


В Н И М А Н И Е
Сайт не распространяет и не хранит электронные версии произведений, а лишь бесплатно и без коммерческой выгоды (не требуя взамен платы,
SMS и т.д.) предоставляет доступ к создаваемому пользователями каталогу ссылок на торрент-файлы, которые содержат только списки хеш-сумм.
Убедительная просьба с жалобами обращаться напрямую к пользователю, разместившему торрент файл.

Вверх