Loading...
Error

Хижина в лесу / The Cabin in the Woods (Дрю Годдард) [2011 г., ужасы, триллер, HDRip] Dub + Original Eng + Sub Rus HQ Underverse

Статистика раздачи
Размер:  1,45 GB   |    Зарегистрирован:  4 года 2 месяца   |    Скачан:  28 раз

Полного источника не было: 5 дней

Сидов:  0  |  0 KB/s  ]   Личеров:  0  |  0 KB/s  ]

* - сиды/пиры с внешних источников

   
 
Автор Сообщение

HQ Underverse 

20-Сен-2012 03:36

Хижина в лесу / The Cabin in the Woods


Год выпуска: 2011
Жанр: ужасы, триллер
Страна: США
Режиссер: Дрю Годдард
В ролях: Кристен Коннолли, Крис Хемсворт, Анна Хатчисон, Фрэн Кранц, Джесси Уильямс, Брэдли Уитфорд, Ричард Дженкинс, Сигурни Уивер, Брайан Дж. Уайт, Эми Эккер
Сюжет фильма:
Шумная компания из пяти друзей сбегает на уик-энд подебоширить в изолированную от всего мира деревенскую хижину. Звучит знакомо? Ну так вы и не представляете, что вас ждёт на самом деле.

  • Мировая премьера: 10 декабря 2011
  • Российская премьера: 12 апреля 2012, «West»

|
Качество видео: HDRip

Продолжительность: 01:35:00
Формат: avi
Видео: XviD, 720x304, 1732 kbps
Аудио #1: русский, дублированный [лицензия], AC3 5.1, 448 kbps
Аудио #2: английский, оригинал, AC3 5.1, 448 kbps (отдельным файлом: здесь)
Субтитры: внешние, SRT, русский (на narod.ru)

Код:

General
Complete name                    : Z:\Видео\HQ\Хижина в лесу\Cabin.In.The.Woods.2012.HDRip.XviD.AC3.Rus.D.HQ.Underverse.avi
Format                           : AVI
Format/Info                      : Audio Video Interleave
File size                        : 1.45 GiB
Duration                         : 1h 35mn
Overall bit rate                 : 2 190 Kbps
Writing application              : VirtualDubMod 1.5.10.2 (build 2542/release)
Writing library                  : VirtualDubMod build 2542/release

Video
ID                               : 0
Format                           : MPEG-4 Visual
Format profile                   : Streaming Video@L1
Format settings, BVOP            : Yes
Format settings, QPel            : No
Format settings, GMC             : No warppoints
Format settings, Matrix          : Custom
Muxing mode                      : Packed bitstream
Codec ID                         : XVID
Codec ID/Hint                    : XviD
Duration                         : 1h 35mn
Bit rate                         : 1 732 Kbps
Width                            : 720 pixels
Height                           : 304 pixels
Display aspect ratio             : 2.35
Frame rate                       : 23.976 fps
Resolution                       : 24 bits
Colorimetry                      : 4:2:0
Scan type                        : Progressive
Bits/(Pixel*Frame)               : 0.330
Stream size                      : 1.15 GiB (79%)
Writing library                  : XviD 64

Audio
ID                               : 1
Format                           : AC-3
Format/Info                      : Audio Coding 3
Codec ID                         : 2000
Duration                         : 1h 34mn
Bit rate mode                    : Constant
Bit rate                         : 448 Kbps
Channel(s)                       : 6 channels
Channel positions                : Front: L C R, Surround: L R, LFE
Sampling rate                    : 48.0 KHz
Stream size                      : 304 MiB (20%)
Alignment                        : Split accross interleaves
Interleave, duration             : 42 ms (1.00 video frame)
Interleave, preload duration     : 500 ms

General
Complete name                    : Z:\Видео\HQ\Хижина в лесу\Cabin.In.The.Woods.2012.HDRip.XviD.AC3.Rus.D.HQ.Underverse.ENG.ac3
Format                           : AC-3
Format/Info                      : Audio Coding 3
File size                        : 304 MiB
Duration                         : 1h 35mn
Overall bit rate                 : 448 Kbps

Audio
Format                           : AC-3
Format/Info                      : Audio Coding 3
Duration                         : 1h 35mn
Bit rate mode                    : Constant
Bit rate                         : 448 Kbps
Channel(s)                       : 6 channels
Channel positions                : Front: L C R, Surround: L R, LFE
Sampling rate                    : 48.0 KHz
Stream size                      : 304 MiB (100%)

Семпл: http://multi-up.com/762959

Релиз группы:

picpicpic
Для увеличения картинки щелкните мышкой по превью

Этот торрент недоступен для скачивания без регистрации, однако доступен по публичной magnet-ссылке (источники с публичных трекеров). Перед использованием ссылки прочтите, пожалуйста Пользовательское соглашение, а также как можно дольше оставайтесь на раздаче! Для того, чтобы скачать сам торрент-файл (который видит больше источников), а также для того, чтобы поблагодарить релизера, вам необходимо зарегистрироваться. Если регистрироваться лень - вы можете также попробовать скачать релиз по нашим партнерским ссылкам ниже.

[underverse.su].t19999.torrent
Трекер: Зарегистрирован   [ 20.09.2012 03:36 ]  

Статус: проверено (by HQ Underverse at 20.09.2012 03:36)
Поблагодарили: 1 человек
Тип торрента: публичный - доступные источники с открытых трекеров: 
Размер: 1,45 GB (занимает 1/3 DVDR, для записи нужно 1 болванка DVDR/RW)
 
 
Похожие темы
Форум Тема Автор Торрент Отв. Посл. сооб.
Зарубежное кино [DVDRip, Low-Res HDRip, и т.д.] Хижина в лесу / The Cabin in the Woods (Дрю Годдард) [2011 г., ужасы, триллер, HDRip] Dub [лицензия] 90ytr90
80 | 4

0 | 591

42

19.09.2012 08:06

Зарубежное кино [DVDRip, Low-Res HDRip, и т.д.] Хижина в лесу / The Cabin in the Woods (Дрю Годдард) [2011 г., ужасы, триллер, HDRip] Dub + Sub (Rus/Eng) DarkAngel
12 | 0

0 | 414

7

19.09.2012 19:00

Зарубежное кино [DVDRip, Low-Res HDRip, и т.д.] Хижина в лесу / The Cabin in the Woods (Дрю Годдард) [2011 г., ужасы, триллер, детектив, BDRip-AVC] Dub 90ytr90
15 | 1

0 | 336

4

24.12.2012 15:32


Яндекс.Метрика powered by Sphinx


В Н И М А Н И Е
Сайт не распространяет и не хранит электронные версии произведений, а лишь бесплатно и без коммерческой выгоды (не требуя взамен платы,
SMS и т.д.) предоставляет доступ к создаваемому пользователями каталогу ссылок на торрент-файлы, которые содержат только списки хеш-сумм.
Убедительная просьба с жалобами обращаться напрямую к пользователю, разместившему торрент файл.

Вверх