Loading...
Error

Дети-самоубийцы / Demons Never Die / Suicide Kids (Арджун Роуз / Arjun Rose) [2011 г., ужасы, HDRip-AVC] VO + Original Eng

Статистика раздачи
Размер:  2,18 GB   |    Зарегистрирован:  4 года 2 месяца   |    Скачан:  12 раз

Полного источника не было: 3 месяца 17 дней

Сидов:  0  |  0 KB/s  ]   Личеров:  0  |  0 KB/s  ]

* - сиды/пиры с внешних источников

   
 
Автор Сообщение

Garnett Пол:Муж

17-Сен-2012 15:08

Дети-самоубийцы / Demons Never Die / Suicide Kids


Год выпуска: 2011
Жанр: ужасы
Страна: Великобритания
Режиссер: Арджун Роуз / Arjun Rose
В ролях: Роберт Шиэн, Эшли Уолтерс, Тулиса Контоcтавлос, Джейсон Маза, Регги Йэтс, Шаника Уоррен, Мерленд, Джейкоб Андерсон, Дженни Жак, Эмма Ригби
Сюжет фильма:
После смерти девушки Амбер, которая покончила с собой, ее друзья в порыве сострадания и солидарности создают и присоединяются к договору о совместном самоубийстве. Но вот незадача, те кто вошли в список начинают по одному умирать от руки некоего убийцы в маске. Дети-самоубийцы наконец-то понимают цену жизни, но не слишком ли поздно? Тем более жить им или не жить уже решают не они…
Качество видео: HDRip-AVC

Продолжительность: 01:33:01
Формат: MKV
Видео: x264, 1120x476, 2582 Кбит/сек
Аудио 1: Russian: AC3 / Dolby Digital Audio / 5.1 / 48 kHz / 384 kbps |VO|
Аудио 2: English: AC3 / Dolby Digital Audio / 5.1 / 48 kHz / 384 kbps

Код:

Общее
Уникальный идентификатор         : 198812723557562269621825414738060402000 (0x9591F01133801D18AD25DDE7B42A5D50)
Полное имя                       : C:\Users\Deerhoof\Demons Never Die.2011.HDRip-AVC_[*другой трекер*]_by_Deerhoof.mkv
Формат                           : Matroska
Версия формата                   : Version 2
Размер файла                     : 2,18 Гбайт
Продолжительность                : 1 ч. 33 м.
Общий поток                      : 3351 Кбит/сек
Название фильма                  : Demons Never Die.2011_Deerhoof
Дата кодирования                 : UTC 2012-09-14 14:44:58
Программа кодирования            : mkvmerge v5.6.0 ('Kenya Kane') built on May 27 2012 16:44:04
Библиотека кодирования           : libebml v1.2.3 + libmatroska v1.3.0
Видео
Идентификатор                    : 1
Формат                           : AVC
Формат/Информация                : Advanced Video Codec
Профиль формата                  : High@L4.1
Параметр CABAC формата           : Да
Параметр ReFrames формата        : 11 кадров
Идентификатор кодека             : V_MPEG4/ISO/AVC
Продолжительность                : 1 ч. 33 м.
Битрейт                          : 2582 Кбит/сек
Ширина                           : 1120 пикселей
Высота                           : 476 пикселей
Соотношение сторон               : 2,35:1
Частота кадров                   : 24,000 кадра/сек
Цветовое пространство            : YUV
Субдискретизация насыщенности    : 4:2:0
Битовая глубина                  : 8 бит
Тип развёртки                    : Прогрессивная
Бит/(Пиксели*Кадры)              : 0.202
Размер потока                    : 1,63 Гбайт (75%)
Заголовок                        : Demons Never Die.2011.HDRip-AVC_[*другой трекер*]_by_Deerhoof
Библиотека кодирования           : x264 core 125 r2200 999b753
Настройки программы              : cabac=1 / ref=11 / deblock=1:-2:-1 / analyse=0x3:0x133 / me=umh / subme=11 / psy=1 / psy_rd=1.00:0.05 / mixed_ref=1 / me_range=48 / chroma_me=1 / trellis=2 / 8x8dct=1 / cqm=0 / deadzone=21,11 / fast_pskip=0 / chroma_qp_offset=-3 / threads=6 / lookahead_threads=1 / sliced_threads=0 / nr=0 / decimate=1 / interlaced=0 / bluray_compat=0 / constrained_intra=0 / bframes=10 / b_pyramid=2 / b_adapt=2 / b_bias=0 / direct=3 / weightb=0 / open_gop=0 / weightp=2 / keyint=240 / keyint_min=24 / scenecut=40 / intra_refresh=0 / rc_lookahead=80 / rc=2pass / mbtree=1 / bitrate=2582 / ratetol=1.0 / qcomp=0.60 / qpmin=0 / qpmax=69 / qpstep=4 / cplxblur=20.0 / qblur=0.5 / ip_ratio=1.40 / aq=2:1.00
Язык                             : English
Основные цвета                   : BT.709-5, BT.1361, IEC 61966-2-4, SMPTE RP177
Характеристики трансфера         : BT.709-5, BT.1361
Коэффициенты матрицы             : BT.709-5, BT.1361, IEC 61966-2-4 709, SMPTE RP177
Аудио #1
Идентификатор                    : 2
Формат                           : AC-3
Формат/Информация                : Audio Coding 3
Расширение режима                : CM (complete main)
Идентификатор кодека             : A_AC3
Продолжительность                : 1 ч. 33 м.
Вид битрейта                     : Постоянный
Битрейт                          : 384 Кбит/сек
Каналы                           : 6 каналов
Расположение каналов             : Front: L C R, Side: L R, LFE
Частота                          : 48,0 КГц
Битовая глубина                  : 16 бит
Метод сжатия                     : С потерями
Размер потока                    : 255 Мбайт (11%)
Заголовок                        : Одноголосый закадровый
Язык                             : Russian
Аудио #2
Идентификатор                    : 3
Формат                           : AC-3
Формат/Информация                : Audio Coding 3
Расширение режима                : CM (complete main)
Идентификатор кодека             : A_AC3
Продолжительность                : 1 ч. 33 м.
Вид битрейта                     : Постоянный
Битрейт                          : 384 Кбит/сек
Каналы                           : 6 каналов
Расположение каналов             : Front: L C R, Side: L R, LFE
Частота                          : 48,0 КГц
Битовая глубина                  : 16 бит
Метод сжатия                     : С потерями
Размер потока                    : 255 Мбайт (11%)
Язык                             : English
picpicpic
Для увеличения картинки щелкните мышкой по превью

Этот торрент недоступен для скачивания без регистрации, однако доступен по публичной magnet-ссылке (источники с публичных трекеров). Перед использованием ссылки прочтите, пожалуйста Пользовательское соглашение, а также как можно дольше оставайтесь на раздаче! Для того, чтобы скачать сам торрент-файл (который видит больше источников), а также для того, чтобы поблагодарить релизера, вам необходимо зарегистрироваться. Если регистрироваться лень - вы можете также попробовать скачать релиз по нашим партнерским ссылкам ниже.

[underverse.su].t19957.torrent
Трекер: Зарегистрирован   [ 17.09.2012 15:09 ]  

Статус: проверено (by garry at 17.09.2012 17:01)
Поблагодарили: пока никто не поблагодарил...
Тип торрента: публичный - доступные источники с открытых трекеров: 
Размер: 2,18 GB (занимает 1/2 DVDR, для записи нужно 1 болванка DVDR/RW)
 
 
Похожие темы
Форум Тема Автор Торрент Отв. Посл. сооб.
Зарубежное кино [DVDRip, Low-Res HDRip, и т.д.] Дети-самоубийцы / Demons Never Die (Арджун Роуз) [2011 г., триллер, драма, мелодрама, HDRip] MVO [Creative Sound] Паукан
4 | 0

0 | 413

8

15.07.2013 13:12


Яндекс.Метрика powered by Sphinx


В Н И М А Н И Е
Сайт не распространяет и не хранит электронные версии произведений, а лишь бесплатно и без коммерческой выгоды (не требуя взамен платы,
SMS и т.д.) предоставляет доступ к создаваемому пользователями каталогу ссылок на торрент-файлы, которые содержат только списки хеш-сумм.
Убедительная просьба с жалобами обращаться напрямую к пользователю, разместившему торрент файл.

Вверх