Loading...
Error

Цветы войны / Flowers of War / Jin ling shi san chai (Чжан Имоу) [2011 г., драма, военный, история, HDRip] Dub + Original Eng + Sub (Rus,Eng) HQ Underverse

Статистика раздачи
Размер:  2,17 GB   |    Зарегистрирован:  4 года 2 месяца   |    Скачан:  21 раз
Сидов:  1  |  0 KB/s  ]   Личеров:  0  |  0 KB/s  ]

* - сиды/пиры с внешних источников

   
 
Автор Сообщение

HQ Underverse 

17-Сен-2012 13:56

Цветы войны / Flowers of War / Jin ling shi san chai


Год выпуска: 2011
Жанр: драма, военный, история
Страна: Китай , Гонконг
Режиссер: Чжан Имоу
В ролях: Кристиан Бэйл, Ни Ни, Синю Чжан, Тяньюань Хуанг, Хань Ситин, Дуду Чжан, Тун Давэй, Ацуро Ватабэ, Цао Кэфань, Юань Яньчунци
Сюжет фильма:
Фильм основан на реальных событиях. Действия разворачиваются в период японо-китайской войны. Главный герой, американский гробовщик Джон, направляется в Католическую церковь в Нанкине, чтобы подготовить священника к похоронам. По прибытию он оказывается единственным мужчиной среди учениц монастыря и проституток из соседнего борделя в эпицентре военных действий. Оказавшись в таком положении, он выдаёт себя за священника и пытается спасти обе группы от ужасов вторжения японской армии…

  • Мировая премьера: 16 декабря 2011
  • Российская премьера: 2 августа 2012, «Люксор»

|
Качество видео: HDRip

Продолжительность: 02:25:59
Формат: avi
Видео: XviD, 720x304, 1728 kbps
Аудио #1: русский, дублированный [лицензия], AC3 5.1, 384 kbps
Аудио #2: английский, оригинал, AC3 5.1, 384 kbps (отдельным файлом: здесь)
Субтитры #1: внешние, SRT, английский (на narod.ru)
Субтитры #2: внешние, SRT, русский (на narod.ru)
Субтитры #3: внешние, SRT, русский (FORCED) (на narod.ru)

Код:

General
Complete name                    : Z:\Видео\HQ\Цветы войны\Flowers.Of.War.2011.HDRip.XviD.AC3.Rus.D.HQ.Underverse.avi
Format                           : AVI
Format/Info                      : Audio Video Interleave
Format profile                   : OpenDML
File size                        : 2.17 GiB
Duration                         : 2h 25mn
Overall bit rate                 : 2 125 Kbps
Writing application              : VirtualDubMod 1.5.10.2 (build 2542/release)
Writing library                  : VirtualDubMod build 2542/release

Video
ID                               : 0
Format                           : MPEG-4 Visual
Format profile                   : Streaming Video@L1
Format settings, BVOP            : Yes
Format settings, QPel            : No
Format settings, GMC             : No warppoints
Format settings, Matrix          : Custom
Muxing mode                      : Packed bitstream
Codec ID                         : XVID
Codec ID/Hint                    : XviD
Duration                         : 2h 25mn
Bit rate                         : 1 729 Kbps
Width                            : 720 pixels
Height                           : 304 pixels
Display aspect ratio             : 2.35
Frame rate                       : 24.000 fps
Resolution                       : 24 bits
Colorimetry                      : 4:2:0
Scan type                        : Progressive
Bits/(Pixel*Frame)               : 0.329
Stream size                      : 1.76 GiB (81%)
Writing library                  : XviD 64

Audio
ID                               : 1
Format                           : AC-3
Format/Info                      : Audio Coding 3
Codec ID                         : 2000
Duration                         : 2h 25mn
Bit rate mode                    : Constant
Bit rate                         : 384 Kbps
Channel(s)                       : 6 channels
Channel positions                : Front: L C R, Surround: L R, LFE
Sampling rate                    : 48.0 KHz
Stream size                      : 401 MiB (18%)
Alignment                        : Split accross interleaves
Interleave, duration             : 42 ms (1.00 video frame)
Interleave, preload duration     : 500 ms

General
Complete name                    : Z:\Видео\HQ\Цветы войны\Flowers.Of.War.2011.HDRip.XviD.AC3.Rus.D.HQ.Underverse.ENG.ac3
Format                           : AC-3
Format/Info                      : Audio Coding 3
File size                        : 401 MiB
Duration                         : 2h 25mn
Overall bit rate                 : 384 Kbps

Audio
Format                           : AC-3
Format/Info                      : Audio Coding 3
Duration                         : 2h 25mn
Bit rate mode                    : Constant
Bit rate                         : 384 Kbps
Channel(s)                       : 6 channels
Channel positions                : Front: L C R, Surround: L R, LFE
Sampling rate                    : 48.0 KHz
Stream size                      : 401 MiB (100%)

Семпл: http://multi-up.com/761905

Релиз группы:

picpicpic
Для увеличения картинки щелкните мышкой по превью

Этот торрент недоступен для скачивания без регистрации, однако доступен по публичной magnet-ссылке (источники с публичных трекеров). Перед использованием ссылки прочтите, пожалуйста Пользовательское соглашение, а также как можно дольше оставайтесь на раздаче! Для того, чтобы скачать сам торрент-файл (который видит больше источников), а также для того, чтобы поблагодарить релизера, вам необходимо зарегистрироваться. Если регистрироваться лень - вы можете также попробовать скачать релиз по нашим партнерским ссылкам ниже.

[underverse.su].t19954.torrent
Трекер: Зарегистрирован   [ 17.09.2012 14:01 ]  

Статус: проверено (by garry at 17.09.2012 14:10)
Поблагодарили: 2 человека
Тип торрента: публичный - доступные источники с открытых трекеров: 
Размер: 2,17 GB (занимает 1/2 DVDR, для записи нужно 1 болванка DVDR/RW)
 
 
Похожие темы
Форум Тема Автор Торрент Отв. Посл. сооб.
Зарубежное кино [DVDRip, Low-Res HDRip, и т.д.] Цветы войны / Jin li ng shi san chai (Чжан Имоу) [2011 г., драма, военный, история, HDRip] 90ytr90
18 | 0

0 | 728

20

06.09.2012 23:39

mongol 

30-Сен-2012 09:55

ну и как кино???

Яндекс.Метрика powered by Sphinx


В Н И М А Н И Е
Сайт не распространяет и не хранит электронные версии произведений, а лишь бесплатно и без коммерческой выгоды (не требуя взамен платы,
SMS и т.д.) предоставляет доступ к создаваемому пользователями каталогу ссылок на торрент-файлы, которые содержат только списки хеш-сумм.
Убедительная просьба с жалобами обращаться напрямую к пользователю, разместившему торрент файл.

Вверх