Loading...
Error

Ласточкино гнездо / Серии 1-12 (Дмитрий Тюрин) [2012 г., мелодрама, SATRip]

Статистика раздачи
Размер:  5,86 GB   |    Зарегистрирован:  4 года 2 месяца   |    Скачан:  3 раза

Полного источника не было: 2 года

Сидов:  0  |  0 KB/s  ]   Личеров:  0  |  0 KB/s  ]

* - сиды/пиры с внешних источников

   
 
Автор Сообщение

nemos Пол:Муж

17-Сен-2012 13:20

Ласточкино гнездо / 1-12 серии из 12 [Дмитрий Тюрин]


Год выпуска: 2012
Жанр: мелодрама
Страна: Россия
Режиссер: Дмитрий Тюрин
В ролях: Татьяна Арнтгольц, Юрий Стоянов, Наталия Вдовина, Дмитрий Муляр, Иван Жидков, Катерина Шпица, Светлана Немоляева, Елена Плаксина, Надежда Маркина, Александр Козлов
Сюжет фильма:
Для 16-летней выпускницы школы Иды нет никого родней и ближе ее мамы Светланы. Живет эта маленькая, но дружная семья в небольшом провинциальном городке. Внезапно вся жизнь рушится на глазах у Иды: ее мама, простудившись, скоропостижно умирает и оставляет дочку на попечение недалекой и жестокой тетки. Зато у Иды появляется мечта: стать врачом, чтобы спасать жизни других людей. Неожиданно в жизни Иды появляется отец — известный писатель Денис Корнилов и Ида получает шанс вырваться в большой мир! Корнилов привозит девочку в роскошный дом в подмосковном Переделкине, но вскоре Ида понимает, что в семье она лишняя. Мачеха и сводная сестра ненавидят Иду, отец сосредоточен на своей работе и не замечает этого. Единственная родственная душа — сводный брат Ромка. Но и он покидает девушку, официально — чтобы сделать карьеру независимо от родителей, на деле же убегая от искренней, но преступной любви к своей сводной сестре … Ида не даёт судьбе сломить себя, проявляя железный характер: успехи в учебе, прекрасная работа, муж, дети… Казалось, личный рост Иды повторяет рост всей страны, выходящей из острого кризиса 90-ых. И не хватает ей только одного — потерянной когда-то в молодости любви…


Качество видео: SatRip

Продолжительность: 00:40:00 серия
Формат: AVI
Видео: XviD, 704 x 384, 1 644 kbps
Аудио: русский, MP3 2.0, 128 kbps

Код:

E:\СКАЧКИ\С underverse\Ласточкино гнездо (2012) SATRip\Ласточкино гнездо.12.2012.SATRip.avi
   General
      Complete name : E:\СКАЧКИ\С underverse\Ласточкино гнездо (2012) SATRip\Ласточкино гнездо.12.2012.SATRip.avi
      Format : AVI
      Format/Info : Audio Video Interleave
      File size : 510 MiB
      Duration : 40mn 0s
      Overall bit rate : 1 782 Kbps
      Writing library : VirtualDub build 32842/release
   Video #0
      ID : 0
      Format : MPEG-4 Visual
      Format profile : Advanced Simple@L5
      Format settings, BVOP : Yes
      Format settings, QPel : No
      Format settings, GMC : No warppoints
      Format settings, Matrix : Default (H.263)
      Muxing mode : Packed bitstream
      Codec ID : XVID
      Codec ID/Hint : XviD
      Duration : 40mn 0s
      Bit rate : 1 644 Kbps
      Width : 704 pixels
      Height : 384 pixels
      Display aspect ratio : 16:9
      Frame rate : 25.000 fps
      Color space : YUV
      Chroma subsampling : 4:2:0
      Bit depth : 8 bits
      Scan type : Progressive
      Bits/(Pixel*Frame) : 0.228
      Stream size : 471 MiB (92%)
      Writing library : XviD 64
   Audio #1
      ID : 1
      Format : MPEG Audio
      Format version : Version 1
      Format profile : Layer 3
      Mode : Joint stereo
      Mode extension : MS Stereo
      Codec ID : 55
      Codec ID/Hint : MP3
      Duration : 40mn 0s
      Bit rate mode : Constant
      Bit rate : 128 Kbps
      Channel(s) : 2 channels
      Sampling rate : 44.1 KHz
      Stream size : 36.6 MiB (7%)
      Alignment : Split accross interleaves
      Interleave, duration : 40 ms (1.00 video frame)
      Interleave, preload duration : 500 ms
Семпл: http://multi-up.com/761889

picpicpicpicpicpicpicpicpicpicpicpicpicpic
Для увеличения картинки щелкните мышкой по превью

Этот торрент недоступен для скачивания без регистрации, однако доступен по публичной magnet-ссылке (источники с публичных трекеров). Перед использованием ссылки прочтите, пожалуйста Пользовательское соглашение, а также как можно дольше оставайтесь на раздаче! Для того, чтобы скачать сам торрент-файл (который видит больше источников), а также для того, чтобы поблагодарить релизера, вам необходимо зарегистрироваться. Если регистрироваться лень - вы можете также попробовать скачать релиз по нашим партнерским ссылкам ниже.

[underverse.su].t19952.torrent
Трекер: Зарегистрирован   [ 17.09.2012 13:20 ]  

Статус: проверено (by garry at 17.09.2012 15:07)
Поблагодарили: пока никто не поблагодарил...
Тип торрента: публичный - доступные источники с открытых трекеров: 
Размер: 5,86 GB (занимает 1,34 DVDR, для записи нужно 2 болванки DVDR/RW)
 
 

Яндекс.Метрика powered by Sphinx


В Н И М А Н И Е
Сайт не распространяет и не хранит электронные версии произведений, а лишь бесплатно и без коммерческой выгоды (не требуя взамен платы,
SMS и т.д.) предоставляет доступ к создаваемому пользователями каталогу ссылок на торрент-файлы, которые содержат только списки хеш-сумм.
Убедительная просьба с жалобами обращаться напрямую к пользователю, разместившему торрент файл.

Вверх