Loading...
Error

Самурай Джек | Samurai Jack, se 1-4 of 4 (Генндий Тартаковский, Рэнди Майерс, Роберт Альварез) [2001 г., фантастика, фэнтези, боевик, триллер, приключения, DVDRip]

Статистика раздачи
Размер:  10,47 GB   |    Зарегистрирован:  4 года 2 месяца   |    Скачан:  5 раз

Полного источника не было: 3 месяца 6 дней

Сидов:  0  |  0 KB/s  ]   Личеров:  0  |  0 KB/s  ]

* - сиды/пиры с внешних источников

   
 
Автор Сообщение

Печаль'ka Пол:Жен

16-Сен-2012 23:08

Самурай Джек | Samurai Jack
Год выпуска: 2001
Жанр: фантастика, фэнтези, боевик, триллер, приключения
Сезон: 1-4 of 4
Количество серий: 1-52 in 52
Страна: США
Режиссер: Генндий Тартаковский, Рэнди Майерс, Роберт Альварез
Роли озвучивали: Никита Прозоровский, Андрей Ярославцев, Дмитрий Филимонов, Алексей Борзунов, Юрий Маляров
Сюжет фильма:
Злой волшебник Аку закинул великого воина древности самурая по имени Джек в далёкое будущее. Дисциплина и верность кодексу самурая делают Джека героем жителей нового времени. К тому же он единственный воин, который может предотвратить порабощение мира злодеем Аку.

Качество видео: DVDRip

Продолжительность: 00:21:58
Формат: avi
Видео: XviD, 576x432, 1113 kbps
Аудио: русский, дублированный [лицензия | от 2x2], MP3 2.0, 160 kbps

Код:

General
Complete name                    : D:\Видео\Мульты\Samurai Jack (Rus) DVDRip\Samurai.Jack.s01e06.VI.(rus).DVDRip.avi
Format                           : AVI
Format/Info                      : Audio Video Interleave
File size                        : 202 MiB
Duration                         : 21mn 58s
Overall bit rate                 : 1 284 Kbps
Writing library                  : VirtualDub build 13719/release

Video
ID                               : 0
Format                           : MPEG-4 Visual
Format profile                   : Streaming Video@L1
Format settings, BVOP            : Yes
Format settings, QPel            : No
Format settings, GMC             : No warppoints
Format settings, Matrix          : Default (H.263)
Muxing mode                      : Packed bitstream
Codec ID                         : XVID
Codec ID/Hint                    : XviD
Duration                         : 21mn 58s
Bit rate                         : 1 114 Kbps
Width                            : 576 pixels
Height                           : 432 pixels
Display aspect ratio             : 4/3
Frame rate                       : 25.000 fps
Resolution                       : 24 bits
Colorimetry                      : 4:2:0
Scan type                        : Progressive
Bits/(Pixel*Frame)               : 0.179
Stream size                      : 175 MiB (87%)
Writing library                  : XviD 1.1.2 (UTC 2006-11-01)

Audio
ID                               : 1
Format                           : MPEG Audio
Format version                   : Version 1
Format profile                   : Layer 3
Codec ID                         : 55
Codec ID/Hint                    : MP3
Duration                         : 21mn 58s
Bit rate mode                    : Constant
Bit rate                         : 160 Kbps
Channel(s)                       : 2 channels
Sampling rate                    : 48.0 KHz
Resolution                       : 16 bits
Stream size                      : 25.1 MiB (12%)
Alignment                        : Split accross interleaves
Interleave, duration             : 40 ms (1.00 video frame)
Interleave, preload duration     : 459 ms

picpicpicpic
Для увеличения картинки щелкните мышкой по превью

Этот торрент недоступен для скачивания без регистрации, однако доступен по публичной magnet-ссылке (источники с публичных трекеров). Перед использованием ссылки прочтите, пожалуйста Пользовательское соглашение, а также как можно дольше оставайтесь на раздаче! Для того, чтобы скачать сам торрент-файл (который видит больше источников), а также для того, чтобы поблагодарить релизера, вам необходимо зарегистрироваться. Если регистрироваться лень - вы можете также попробовать скачать релиз по нашим партнерским ссылкам ниже.

[underverse.su].t19934.torrent
Трекер: Зарегистрирован   [ 16.09.2012 23:16 ]  

Статус: проверено (by Печаль'ka at 16.09.2012 23:16)
Поблагодарили: пока никто не поблагодарил...
Тип торрента: публичный - доступные источники с открытых трекеров: 
Размер: 10,47 GB (занимает 2,39 DVDR, для записи нужно 3 болванки DVDR/RW)
 
 

Nightwalker Пол:Муж

24-Сен-2012 23:35

Спасибо

Яндекс.Метрика powered by Sphinx


В Н И М А Н И Е
Сайт не распространяет и не хранит электронные версии произведений, а лишь бесплатно и без коммерческой выгоды (не требуя взамен платы,
SMS и т.д.) предоставляет доступ к создаваемому пользователями каталогу ссылок на торрент-файлы, которые содержат только списки хеш-сумм.
Убедительная просьба с жалобами обращаться напрямую к пользователю, разместившему торрент файл.

Вверх