Loading...
Error

Заклятие долины змей (Марек Пестрак) [1987 г., фантастика, приключения, DVDRip]

Статистика раздачи
Размер:  1,39 GB   |    Зарегистрирован:  4 года 2 месяца   |    Скачан:  11 раз

Полного источника не было: 3 месяца 11 дней

Сидов:  0  |  0 KB/s  ]   Личеров:  0  |  0 KB/s  ]

* - сиды/пиры с внешних источников

   
 
Автор Сообщение

Osminog 

16-Сен-2012 16:18

Заклятие долины змей


Год выпуска: 1987
Жанр: фантастика, приключения
Страна: СССР , Польша
Режиссер: Марек Пестрак
В ролях: Кшиштоф Кольбергер, Роман Вильгельми, Эва Салацка, Збигнев Лесень, Леон Немчик, Игор Пшегродский, Зигмунт Белявский, Хенрик Биста, Сергей Десницкий, Микк Микивер. Роли дублировали: Владимир Еремин, Сергей Шакуров, Галина Чигинская
Сюжет фильма:
Парижский антиквар Травен некогда выкрал из лаосского монастыря священную реликвию и манускрипт, гласивший, что в Долине Тысячи Змей хранится оружие, обладатель которого станет властелином мира. Проходит время, и Травен с польским ученым отправляются в экспедицию в Долину, не подозревая, что тайна манускрипта известна не только им…

  • Мировая премьера: 3 октября 1988

Качество видео: DVDRip

Продолжительность: 1 ч 39 мин 41 сек
Формат: AVI
Видео: XviD, 720х448, 1 539 Kbps
Аудио: русский, дублированный, AC3 5.1, 448 Kbps

picpicpic
Для увеличения картинки щелкните мышкой по превью

Этот торрент недоступен для скачивания без регистрации, однако доступен по публичной magnet-ссылке (источники с публичных трекеров). Перед использованием ссылки прочтите, пожалуйста Пользовательское соглашение, а также как можно дольше оставайтесь на раздаче! Для того, чтобы скачать сам торрент-файл (который видит больше источников), а также для того, чтобы поблагодарить релизера, вам необходимо зарегистрироваться. Если регистрироваться лень - вы можете также попробовать скачать релиз по нашим партнерским ссылкам ниже.

[underverse.su].t19921.torrent
Трекер: Зарегистрирован   [ 16.09.2012 16:18 ]  

Статус: проверено (by Паукан at 17.09.2012 17:42)
Поблагодарили: пока никто не поблагодарил...
Тип торрента: публичный - доступные источники с открытых трекеров: 
Размер: 1,39 GB (занимает 0,32 DVDR, для записи нужно 1 болванка DVDR/RW)
 
 


Последний раз редактировалось: Osminog (18.09.2012 19:02), всего редактировалось 2 раз(а)

Паукан Пол:Муж

16-Сен-2012 16:25

Скриншоты должны быть оригинального размера.

техно1 Пол:Муж

16-Сен-2012 16:50

Osminog - Вы же сами даете ссылку на Кинопоиск и сами не можете внимательно скопировать
Страна: разве только СССР?

Цитата:

Аудио: русский, оригинал
Как он может быть оригиналом?
Если:Роли дублировали: Владимир Еремин, Сергей Шакуров, Галина Чигинская

Osminog 

16-Сен-2012 17:47

техно1 спасибо я уж и сам заметил ошибки, да поздно. Исправил.

техно1 Пол:Муж

16-Сен-2012 17:50

Osminog писал(а):

техно1 спасибо я уж и сам заметил ошибки, да поздно. Исправил.
Не за что, повнимательнее пожалуйста :wink:

Book_apple 

17-Сен-2012 17:40

Ой помню ходил на это фильм в кинотеатр .. По тем временам забойная была штучка !!
По нынешним временам может и не ахти , но то что он помниться через столько лет .. что то да говорит об этом фильме!

FredyCruger Пол:Муж

18-Сен-2012 03:57

Спасибо

Osminog 

18-Сен-2012 18:49

В личке 90ytr90 спросил меня про параметры аудио. Данные с MediaPlayerClassic:
Audio
ID : 1
Format : AC-3
Format/Info : Audio Coding 3
Codec ID : 2000
Duration : 1h 39mn
Bit rate mode : Constant
Bit rate : 448 Kbps
Channel(s) : 6 channels
Channel positions : Front: L C R, Surround: L R, LFE
Sampling rate : 48.0 KHz
Stream size : 319 MiB (22%)
Alignment : Split accross interleaves
Interleave, duration : 96 ms (2.40 video frames)
Interleave, preload duration : 96 ms

техно1 Пол:Муж

18-Сен-2012 18:55

Osminog писал(а):

В личке 90ytr90 спросил меня про параметры аудио. Данные с MediaPlayerClassic:
Audio
ID : 1
Format : AC-3
Format/Info : Audio Coding 3
Codec ID : 2000
Duration : 1h 39mn
Bit rate mode : Constant
Bit rate : 448 Kbps
Channel(s) : 6 channels
Channel positions : Front: L C R, Surround: L R, LFE
Sampling rate : 48.0 KHz
Stream size : 319 MiB (22%)
Alignment : Split accross interleaves
Interleave, duration : 96 ms (2.40 video frames)
Interleave, preload duration : 96 ms
А в описание указанно 2.0

Osminog 

18-Сен-2012 19:00

техно1 писал(а):

А в описание указанно 2.0
В том то и соль. Сам удивляюсь. Первоначально параметры брал с другого компа через LA (а файл один и тот же). Может ЛА глюканул. :P Исправлю инфу.

Яндекс.Метрика powered by Sphinx


В Н И М А Н И Е
Сайт не распространяет и не хранит электронные версии произведений, а лишь бесплатно и без коммерческой выгоды (не требуя взамен платы,
SMS и т.д.) предоставляет доступ к создаваемому пользователями каталогу ссылок на торрент-файлы, которые содержат только списки хеш-сумм.
Убедительная просьба с жалобами обращаться напрямую к пользователю, разместившему торрент файл.

Вверх