Loading...
Error

Механик (Игорь Копылов) [2012г, боевик, SATRip]

Статистика раздачи
Размер:  701 MB   |    Зарегистрирован:  4 года 2 месяца   |    Скачан:  44 раза

Полного источника не было: 6 месяцев

Сидов:  0  |  0 KB/s  ]   Личеров:  0  |  0 KB/s  ]

* - сиды/пиры с внешних источников

   
 
Автор Сообщение

nemos Пол:Муж

16-Сен-2012 16:00

Механик (Игорь Копылов)


Год выпуска: 2012
Жанр: боевик
Страна: Россия
Режиссер: Игорь Копылов
В ролях: Прохор Дубравин, Татьяна Колганова, Алексей Фокин, Сергей Кошонин, Андрей Кузнецов, Наталья Бурмистрова и др.
Сюжет фильма:
Его никто не видел в лицо. А кто видел - ликвидирован. Несколько лет назад он исчез. Говорят, что он погиб, но труп не был обнаружен. Он - один из самых профессиональных киллеров страны, известный под кличкой Механик. Долгое время сотрудники ФСБ ищут преступника, но поиски ни к чему не приводят. Сможет ли изменить ситуацию бывший опер Горячий, который берется за это дело?


Качество видео: SatRip

Продолжительность: 01:27:00
Формат: AVI
Видео: XviD, 640х336, 986 kbps
Аудио: русский, MP3 2.0, 128 kbps

Код:

E:\СКАЧКИ\С underverse\Механик .2012.SATRip.avi
   General
      Complete name : E:\СКАЧКИ\С underverse\Механик .2012.SATRip.avi
      Format : AVI
      Format/Info : Audio Video Interleave
      File size : 701 MiB
      Duration : 1h 27mn
      Overall bit rate : 1 124 Kbps
      Writing application : VirtualDubMod 1.5.10.3 | www.virtualdub-fr.org || (build 2550/release)
      Writing library : VirtualDub build 34753/release
   Video #0
      ID : 0
      Format : MPEG-4 Visual
      Format profile : Advanced Simple@L5
      Format settings, BVOP : Yes
      Format settings, QPel : No
      Format settings, GMC : No warppoints
      Format settings, Matrix : Default (H.263)
      Muxing mode : Packed bitstream
      Codec ID : XVID
      Codec ID/Hint : XviD
      Duration : 1h 27mn
      Bit rate : 986 Kbps
      Width : 640 pixels
      Height : 336 pixels
      Display aspect ratio : 1.905
      Frame rate : 25.000 fps
      Color space : YUV
      Chroma subsampling : 4:2:0
      Bit depth : 8 bits
      Scan type : Progressive
      Bits/(Pixel*Frame) : 0.183
      Stream size : 615 MiB (88%)
      Writing library : XviD 64
   Audio #1
      ID : 1
      Format : MPEG Audio
      Format version : Version 1
      Format profile : Layer 3
      Mode : Joint stereo
      Mode extension : MS Stereo
      Codec ID : 55
      Codec ID/Hint : MP3
      Duration : 1h 27mn
      Bit rate mode : Constant
      Bit rate : 128 Kbps
      Channel(s) : 2 channels
      Sampling rate : 48.0 KHz
      Stream size : 79.9 MiB (11%)
      Alignment : Split accross interleaves
      Interleave, duration : 40 ms (1.00 video frame)
      Interleave, preload duration : 500 ms
      Writing library : LAME3.98.2
Семпл: http://multi-up.com/761524

picpicpicpicpicpicpicpicpicpicpicpic
Для увеличения картинки щелкните мышкой по превью

Этот торрент недоступен для скачивания без регистрации, однако доступен по публичной magnet-ссылке (источники с публичных трекеров). Перед использованием ссылки прочтите, пожалуйста Пользовательское соглашение, а также как можно дольше оставайтесь на раздаче! Для того, чтобы скачать сам торрент-файл (который видит больше источников), а также для того, чтобы поблагодарить релизера, вам необходимо зарегистрироваться. Если регистрироваться лень - вы можете также попробовать скачать релиз по нашим партнерским ссылкам ниже.

[underverse.su].t19919.torrent
Трекер: Зарегистрирован   [ 16.09.2012 16:00 ]  

Статус: проверено (by Паукан at 16.09.2012 16:05)
Поблагодарили: пока никто не поблагодарил...
Тип торрента: публичный - доступные источники с открытых трекеров: 
Размер: 701 MB (занимает 0,16 DVDR, для записи нужно 1 болванка DVDR/RW)
 
 

dragonhobo Пол:Муж

22-Сен-2012 04:52

Это типо наш ответ их Механику :lol:

Яндекс.Метрика powered by Sphinx


В Н И М А Н И Е
Сайт не распространяет и не хранит электронные версии произведений, а лишь бесплатно и без коммерческой выгоды (не требуя взамен платы,
SMS и т.д.) предоставляет доступ к создаваемому пользователями каталогу ссылок на торрент-файлы, которые содержат только списки хеш-сумм.
Убедительная просьба с жалобами обращаться напрямую к пользователю, разместившему торрент файл.

Вверх