Loading...
Error

Без свидетелей / Серии: 1-45(45) (Илья Малкин, Борис Хлебников) [2012г, психологическая драма, SATRip]

Статистика раздачи
Размер:  10,82 GB   |    Зарегистрирован:  4 года 1 месяц   |    Скачан:  1 раз

Полного источника не было: 2 года

Сидов:  0  |  0 KB/s  ]   Личеров:  0  |  0 KB/s  ]

* - сиды/пиры с внешних источников

   
 
Автор Сообщение

nemos Пол:Муж

14-Сен-2012 17:26



Год выпуска: 2012
Жанр: драма
Страна: Россия
Режиссер: Илья Малкин, Борис Хлебников
В ролях: Ксения Кутепова, Дмитрий Орлов, Илья Любимов, Дарья Мороз, Андрей Ильин, Андрей Барило, Андрей Казаков, Александра РевенкоНадежда Каменькович,
Сюжет фильма:
Российская адаптация израильского сериала «Be tipul»/«На лечении». Главная героиня – психолог Татьяна Дубровина. Действие сериала происходит в квартире главной героини, где она принимает пациентов, и в кабинете ее наставника. Кажется, люди просто разговаривают. Но в этих разговорах на диване психолога больше энергии и больше действия, чем в ином блокбастере.
Татьяне приходится быть и судьей, и адвокатом, и последней надеждой для тех, кто потерял веру в себя и своих близких. Ее сеансы заставляют людей переосмыслить свое «я» и отношения с миром. Но и ответственность велика. Результаты могут быть самыми разными - от примирения с миром до… самоубийства.
Как бы то ни было, но Татьяна сама периодически испытывает на себе те же проблемы, с которыми к ней обращаются пациенты. Ведь ей каждый день приходится невольно поглощать весь негатив, который ей принесли люди.
Постепенно у девушки начинаются проблемы в семье, причем проблемы, как с мужем, так и с дочерью. Теперь ей и самой нужна помощь квалифицированного психолога…


Качество видео: SatRip

Продолжительность: 00:25 х серия
Формат: AVI
Видео: XviD, 720x400, 1028 kbps
Аудио: русский, MP3 2.0, 128 kbps

Код:

E:\СКАЧКИ\С underverse\Без свидетелей.2012.SATRip.Doc66\Без свидетелей. s45.avi
   General
      Complete name : E:\СКАЧКИ\С underverse\Без свидетелей.2012.SATRip.Doc66\Без свидетелей. s45.avi
      Format : AVI
      Format/Info : Audio Video Interleave
      File size : 214 MiB
      Duration : 25mn 42s
      Overall bit rate : 1 166 Kbps
      Writing application : VirtualDubMod 1.5.10.3 | www.virtualdub-fr.org || (build 2550/release)
      Writing library : VirtualDubMod build 2550/release
   Video #0
      ID : 0
      Format : MPEG-4 Visual
      Format profile : Advanced Simple@L5
      Format settings, BVOP : Yes
      Format settings, QPel : No
      Format settings, GMC : No warppoints
      Format settings, Matrix : Custom
      Codec ID : DX50
      Codec ID/Hint : DivX 5
      Duration : 25mn 42s
      Bit rate : 1 028 Kbps
      Width : 720 pixels
      Height : 400 pixels
      Display aspect ratio : 16:9
      Frame rate : 25.000 fps
      Color space : YUV
      Chroma subsampling : 4:2:0
      Bit depth : 8 bits
      Scan type : Progressive
      Bits/(Pixel*Frame) : 0.143
      Stream size : 189 MiB (88%)
      Writing library : XviD 65
   Audio #1
      ID : 1
      Format : MPEG Audio
      Format version : Version 1
      Format profile : Layer 3
      Codec ID : 55
      Codec ID/Hint : MP3
      Duration : 25mn 42s
      Bit rate mode : Constant
      Bit rate : 128 Kbps
      Channel(s) : 2 channels
      Sampling rate : 48.0 KHz
      Stream size : 23.5 MiB (11%)
      Alignment : Aligned on interleaves
      Interleave, duration : 40 ms (1.00 video frame)
      Interleave, preload duration : 504 ms
      Writing library : LAME3.99r
      Encoding settings : -m s -V 4 -q 0 -lowpass 17 -b 128
Семпл: http://multi-up.com/760698

picpicpicpicpicpicpicpic
Для увеличения картинки щелкните мышкой по превью

Этот торрент недоступен для скачивания без регистрации, однако доступен по публичной magnet-ссылке (источники с публичных трекеров). Перед использованием ссылки прочтите, пожалуйста Пользовательское соглашение, а также как можно дольше оставайтесь на раздаче! Для того, чтобы скачать сам торрент-файл (который видит больше источников), а также для того, чтобы поблагодарить релизера, вам необходимо зарегистрироваться. Если регистрироваться лень - вы можете также попробовать скачать релиз по нашим партнерским ссылкам ниже.

[underverse.su].t21106.torrent
Трекер: Зарегистрирован   [ 05.11.2012 14:51 ]  

Статус: проверено (by garry at 05.11.2012 16:26)
Поблагодарили: пока никто не поблагодарил...
Тип торрента: публичный - доступные источники с открытых трекеров: 
Размер: 10,82 GB (занимает 2,47 DVDR, для записи нужно 3 болванки DVDR/RW)
 
 


Последний раз редактировалось: nemos (06.11.2014 12:41), всего редактировалось 23 раз(а)

nemos Пол:Муж

20-Сен-2012 16:00

ОБНОВЛЕНА

nemos Пол:Муж

29-Сен-2012 15:34

Обновлена

nemos Пол:Муж

07-Окт-2012 17:30

Обновлена,

nemos Пол:Муж

09-Окт-2012 15:06

Обновлен.

nemos Пол:Муж

11-Окт-2012 07:46

Обновлена

nemos Пол:Муж

14-Окт-2012 15:09

Обновлен

nemos Пол:Муж

18-Окт-2012 14:06

ОБНОВЛЕНА

garry Пол:Муж

18-Окт-2012 14:20

nemos писал(а):

ОБНОВЛЕНА
отвыкайте от Капс лока

nemos Пол:Муж

22-Окт-2012 11:59

Обновлен

nemos Пол:Муж

26-Окт-2012 15:59

Обновлен

nemos Пол:Муж

29-Окт-2012 14:01

Обновляемся! (40)

nemos Пол:Муж

03-Ноя-2012 20:38

Обновляемся! (43)

nemos Пол:Муж

05-Ноя-2012 14:53

Обновлен , Все серии,

Яндекс.Метрика powered by Sphinx


В Н И М А Н И Е
Сайт не распространяет и не хранит электронные версии произведений, а лишь бесплатно и без коммерческой выгоды (не требуя взамен платы,
SMS и т.д.) предоставляет доступ к создаваемому пользователями каталогу ссылок на торрент-файлы, которые содержат только списки хеш-сумм.
Убедительная просьба с жалобами обращаться напрямую к пользователю, разместившему торрент файл.

Вверх