Loading...
Error

Возмездие Эрпа / Wyatt Earp's Revenge (Майкл Фейфер) [2012 г., Драма, вестерн, DVDRip]

Статистика раздачи
Размер:  1,46 GB   |    Зарегистрирован:  4 года 2 месяца   |    Скачан:  49 раз

Полного источника не было: 1 год 2 месяца

Сидов:  0  |  0 KB/s  ]   Личеров:  0  |  0 KB/s  ]

* - сиды/пиры с внешних источников

   
 
Автор Сообщение

nemos Пол:Муж

14-Сен-2012 15:37

Возмездие Эрпа / Wyatt Earp's Revenge (Майкл Фейфер)


Год выпуска: 2012
Жанр: драма, вестерн
Страна: США
Режиссер: Майкл Фейфер
В ролях: Вэл Килмер, Шоун Робертс, Мэтт Даллас, Дэниэл Буко, Скотт Уайт, Стивен Грейхм, Трэйси Д. Эдкинс, Брайан Гро, Мартин Сантандер, Уилсон Бетел, Чарли Бьюли, Уэс Браун, Мэйсон Кук, Джонатан Айли, Миракл Лоури, Морган Слемп, Кейтлин Блэк, Дэвид О’Доннелл, Лайл Кэйнаус, Кайа Коли, Роб Дэйли, Эндрю Хоукс, Даррен Б. Шеперд, Кевин МакНивен, Карин МакКехни
Сюжет фильма:
Фильм основан на реальной истории легендарного юриста, который рассказывает как собирал лучших со всего Запада, чтобы отомстить за жестокое убийство своей любимой Доры. Вместе со знаменитыми Батом Мастерсоном, Чарли Бассетом, Биллом Тилгменом и Доком Холидэем Эрп преследует братьев Кенеди, которые занимаются убийствами на территории от Додж-сити до Мексики. Защищенные своим влиятельным отцом безжалостные братья знают, что законы написаны не для них, но они недооценили Эрпа и его отряд. Звездный актерский состав фильма- Шоун Робертс, Трейс Адкинс, Мэтт Даллас и Вэл Килмер.

  • Мировая премьера: 6 марта 2012

Качество видео: DVDRip

Продолжительность: 01:28:00
Формат: AVI
Видео: XviD, 720x400 , 1954 kbps
Аудио: русский, многоголосый закадровый (профессиональный), AC3 5.1, 384 kbps

Код:

E:\СКАЧКИ\С underverse\Vozmezdie.Erpa.2012.XviD.DVDRip.avi
   General
      Complete name : E:\СКАЧКИ\С underverse\Vozmezdie.Erpa.2012.XviD.DVDRip.avi
      Format : AVI
      Format/Info : Audio Video Interleave
      File size : 1.46 GiB
      Duration : 1h 28mn
      Overall bit rate : 2 348 Kbps
      Writing application : VirtualDubMod 1.5.10.3 (build 2550/release)
      Writing library : VirtualDubMod build 2550/release
   Video #0
      ID : 0
      Format : MPEG-4 Visual
      Format profile : Advanced Simple@L5
      Format settings, BVOP : Yes
      Format settings, QPel : No
      Format settings, GMC : No warppoints
      Format settings, Matrix : Custom
      Codec ID : XVID
      Codec ID/Hint : XviD
      Duration : 1h 28mn
      Bit rate : 1 954 Kbps
      Width : 720 pixels
      Height : 400 pixels
      Display aspect ratio : 16:9
      Frame rate : 25.000 fps
      Color space : YUV
      Chroma subsampling : 4:2:0
      Bit depth : 8 bits
      Scan type : Progressive
      Bits/(Pixel*Frame) : 0.271
      Stream size : 1.21 GiB (83%)
      Writing library : XviD 64
   Audio #1
      ID : 1
      Format : AC-3
      Format/Info : Audio Coding 3
      Mode extension : CM (complete main)
      Codec ID : 2000
      Duration : 1h 28mn
      Bit rate mode : Constant
      Bit rate : 384 Kbps
      Channel(s) : 6 channels
      Channel positions : Front: L C R, Side: L R, LFE
      Sampling rate : 48.0 KHz
      Stream size : 244 MiB (16%)
      Alignment : Split accross interleaves
      Interleave, duration : 40 ms (1.00 video frame)
      Interleave, preload duration : 500 ms
Семпл: http://multi-up.com/760638

picpicpicpicpicpicpicpicpicpic
Для увеличения картинки щелкните мышкой по превью

Этот торрент недоступен для скачивания без регистрации, однако доступен по публичной magnet-ссылке (источники с публичных трекеров). Перед использованием ссылки прочтите, пожалуйста Пользовательское соглашение, а также как можно дольше оставайтесь на раздаче! Для того, чтобы скачать сам торрент-файл (который видит больше источников), а также для того, чтобы поблагодарить релизера, вам необходимо зарегистрироваться. Если регистрироваться лень - вы можете также попробовать скачать релиз по нашим партнерским ссылкам ниже.

[underverse.su].t19858.torrent
Трекер: Зарегистрирован   [ 14.09.2012 15:37 ]  

Статус: проверено (by garry at 14.09.2012 18:58)
Поблагодарили: 2 человека
Тип торрента: публичный - доступные источники с открытых трекеров: 
Размер: 1,46 GB (занимает 1/3 DVDR, для записи нужно 1 болванка DVDR/RW)
 
 
Похожие темы
Форум Тема Автор Торрент Отв. Посл. сооб.
Зарубежное кино [DVDRip, Low-Res HDRip, и т.д.] Возмездие / The Railway Man (Джонатан Теплицки / Jonathan Teplitzky) [2013 г., драма, биография, HDRip] VO (R.A.I.M) 90ytr90
12 | 0

0 | 1229

11

29.04.2014 04:40

Зарубежное кино [DVDRip, Low-Res HDRip, и т.д.] Возмездие / The Railway Man (Джонатан Теплицки / Jonathan Teplitzky) [2013 г., драма, биография, HDRip] DVO (qwerty & R.A.I.M) 90ytr90
20 | 3

0 | 1747

17

30.04.2014 13:26

Зарубежное кино [DVDRip, Low-Res HDRip, и т.д.] Возмездие / The Railway Man (Джонатан Теплицки / Jonathan Teplitzky) [2013 г., драма, биография, HDRip] DVO (Пиратская Студия) 90ytr90
5 | 0

0 | 1809

4

04.05.2014 19:40

Зарубежное кино [DVDRip, Low-Res HDRip, и т.д.] Возмездие / Edge of Darkness (Мартин Кэмпбелл) [2010 г., триллер, драма, детектив, BDRip-AVC] Dub + Original (Eng) + Subs 90ytr90
0 | 0

0 | 199

2

10.02.2015 06:08

Зарубежное кино [DVDRip, Low-Res HDRip, и т.д.] Возмездие Эрпа / Wyatt Earp's Revenge (Майкл Фейфер) [2012 г., Драма, Вестерн, HDTVRip] MVO (RUS) + Original (ENG) + (CZE) + (POL) Ведьмочка
1 | 0

0 | 615

10

15.10.2014 23:37

Зарубежное кино [DVDRip, Low-Res HDRip, и т.д.] Возмездие / Edge of Darkness (Мартин Кэмпбелл / Martin Campbell) [2010 г., триллер, драма, детектив, HDRip] Dub 90ytr90
1 | 0

0 | 281

6

10.02.2015 16:57

Зарубежное кино [DVDRip, Low-Res HDRip, и т.д.] Возмездие Макса Кибла / Max Keeble's Big Move (Тим Хилл) [2001 г., комедия, семейный, DVDRip] MVO makkol
3 | 0

0 | 597

5

01.05.2016 14:30

Зарубежные сериалы Возмездие / Revenge / Сезон 1 / Серии 1-22 (22) (Мэтт Эрл Бисли, Филлип Нойс, Сэнфорд Букставер) [2011-2012 г., Драма, триллер, WEBDLRip] MVO + Original Чертёнок
4 | 1

0 | 830

5

28.05.2013 10:34

Зарубежные сериалы Возмездие / Revenge / Сезон 2 / Серии 1-22 (22) (Мэтт Эрл Бисли, Филлип Нойс,) [2012-2013 г., Драма, триллер, WEBDLRip] MVO + Original Чертёнок
2 | 0

0 | 787

2

28.05.2013 11:04

Зарубежные сериалы Возмездие / Revenge / Season 4 (1-23 из 23) (Кеннет Финк, Мэтт Эрл Бисли, Бобби Рот) [2014 г., триллер, драма, мелодрама, детектив, WEB-DLRip] DVO + Original ultarasbarcelona
1 | 0

0 | 357

3

13.05.2015 08:54


Яндекс.Метрика powered by Sphinx


В Н И М А Н И Е
Сайт не распространяет и не хранит электронные версии произведений, а лишь бесплатно и без коммерческой выгоды (не требуя взамен платы,
SMS и т.д.) предоставляет доступ к создаваемому пользователями каталогу ссылок на торрент-файлы, которые содержат только списки хеш-сумм.
Убедительная просьба с жалобами обращаться напрямую к пользователю, разместившему торрент файл.

Вверх