Loading...
Error

Думай, как мужчина / Think Like a Man (Тим Стори / Tim Story) [2012 г., мелодрама, комедия, HDRip-AVC]

Статистика раздачи
Размер:  2,18 GB   |    Зарегистрирован:  4 года 2 месяца   |    Скачан:  9 раз

Полного источника не было: 11 месяцев

Сидов:  0  |  0 KB/s  ]   Личеров:  0  |  0 KB/s  ]

* - сиды/пиры с внешних источников

   
 
Автор Сообщение

Garnett Пол:Муж

12-Сен-2012 11:32

Думай, как мужчина / Think Like a Man


Год выпуска: 2012
Жанр: мелодрама, комедия
Страна: США
Режиссер: Тим Стори / Tim Story
В ролях: Ариэль Кеббел (Gina), Джерри Феррара (Jeremy), Тараджи П. Хенсон (Lauren), Миган Гуд (Mya), Гэбриэл Юнион (Kristen), Моррис Честнат (James), Кевин Харт (Cedric), Майкл Или (Dominic), Крис Браун (Alex), Реджина Холл (Candace)
Сюжет фильма:
Четверо героев страдают от проблем во взаимоотношениях со спутницами жизни, которые вовсю черпают советы из книги Стива Харви «Поступай как женщина, думай как мужчина». Узнав об этом, парни решают отомстить слабому полу тем, что попытаются опровергнуть данные в тексте рекомендации, ведя себя в точности наоборот.
Качество видео: HDRip-AVC

Продолжительность: 02:02:03
Формат: MKV
Видео: x264, 1152x480, 1659 kbps
Аудио 1: (русский), Профессиональный (многоголосый закадровый), AC-3, 48.0 kHz, 448 kbps, 5.1 ch
Аудио 2: (английский) AC-3, 48.0 kHz, 448 kbps, 5.1 ch

Код:

General
Unique ID                                : 287395784639213055622649865750765540328 (0xD8366A2D3C2E46EFB60D09F8A06A93E8)
Complete name                            : /home/kem/Video/Think.Like.a.Man.2012.HDRip.x264.MVO.Eng.mkv
Format                                   : Matroska
Format version                           : Version 2
File size                                : 2.18 GiB
Duration                                 : 2h 2mn
Overall bit rate                         : 2 557 Kbps
Encoded date                             : UTC 2012-09-11 20:55:24
Writing application                      : mkvmerge v5.8.0 ('No Sleep / Pillow') built on Sep  3 2012 22:55:09
Writing library                          : libebml v1.2.2 + libmatroska v1.3.0
Video
ID                                       : 1
Format                                   : AVC
Format/Info                              : Advanced Video Codec
Format profile                           : High@L4.1
Format settings, CABAC                   : Yes
Format settings, ReFrames                : 8 frames
Codec ID                                 : V_MPEG4/ISO/AVC
Duration                                 : 2h 2mn
Bit rate                                 : 1 659 Kbps
Width                                    : 1 152 pixels
Height                                   : 480 pixels
Display aspect ratio                     : 2.40:1
Frame rate                               : 23.976 fps
Color space                              : YUV
Chroma subsampling                       : 4:2:0
Bit depth                                : 8 bits
Scan type                                : Progressive
Bits/(Pixel*Frame)                       : 0.125
Stream size                              : 1.37 GiB (63%)
Writing library                          : x264 core 125
Encoding settings                        : cabac=1 / ref=8 / deblock=1:-3:-3 / analyse=0x3:0x133 / me=umh / subme=11 / psy=1 / psy_rd=1.00:0.00 / mixed_ref=1 / me_range=32 / chroma_me=1 / trellis=2 / 8x8dct=1 / cqm=0 / deadzone=21,11 / fast_pskip=0 / chroma_qp_offset=-4 / threads=6 / lookahead_threads=1 / sliced_threads=0 / nr=0 / decimate=1 / interlaced=0 / bluray_compat=0 / constrained_intra=0 / bframes=6 / b_pyramid=2 / b_adapt=2 / b_bias=0 / direct=3 / weightb=1 / open_gop=0 / weightp=2 / keyint=250 / keyint_min=23 / scenecut=40 / intra_refresh=0 / rc_lookahead=60 / rc=2pass / mbtree=1 / bitrate=1659 / ratetol=1.0 / qcomp=0.70 / qpmin=0 / qpmax=69 / qpstep=4 / cplxblur=20.0 / qblur=0.5 / ip_ratio=1.40 / aq=1:1.00
Default                                  : Yes
Forced                                   : No
Audio #1
ID                                       : 2
Format                                   : AC-3
Format/Info                              : Audio Coding 3
Mode extension                           : CM (complete main)
Format settings, Endianness              : Big
Codec ID                                 : A_AC3
Duration                                 : 2h 2mn
Bit rate mode                            : Constant
Bit rate                                 : 448 Kbps
Channel(s)                               : 6 channels
Channel positions                        : Front: L C R, Side: L R, LFE
Sampling rate                            : 48.0 KHz
Bit depth                                : 16 bits
Compression mode                         : Lossy
Stream size                              : 391 MiB (18%)
Title                                    : MVO
Language                                 : Russian
Default                                  : Yes
Forced                                   : No
Audio #2
ID                                       : 3
Format                                   : AC-3
Format/Info                              : Audio Coding 3
Mode extension                           : CM (complete main)
Format settings, Endianness              : Big
Codec ID                                 : A_AC3
Duration                                 : 2h 2mn
Bit rate mode                            : Constant
Bit rate                                 : 448 Kbps
Channel(s)                               : 6 channels
Channel positions                        : Front: L C R, Side: L R, LFE
Sampling rate                            : 48.0 KHz
Bit depth                                : 16 bits
Compression mode                         : Lossy
Stream size                              : 391 MiB (18%)
Title                                    : Original
Language                                 : English
Default                                  : No
Forced                                   : No
Код:
Video stream: 1658.769 kbit/s  (207346 B/s)  size: 1518417841 bytes  7323.107 secs  175582 frames
x264 [info]: frame I:2398  Avg QP:14.01  size: 64939
x264 [info]: frame P:42182 Avg QP:16.86  size: 16702
x264 [info]: frame B:130999 Avg QP:19.21  size:  5024
x264 [info]: consecutive B-frames:  2.2%  2.2%  5.9% 57.9% 12.8% 15.8%  3.2%
x264 [info]: mb I  I16..4:  7.8% 73.4% 18.8%
x264 [info]: mb P  I16..4:  1.1%  7.6%  1.0%  P16..4: 34.4% 35.7%  9.2%  2.5%  0.2%    skip: 8.3%
x264 [info]: mb B  I16..4:  0.2%  0.8%  0.1%  B16..8: 34.1% 17.0%  2.2%  direct: 3.4%  skip:42.3%  L0:41.6% L1:46.8% BI:11.7%
x264 [info]: 8x8 transform intra:76.4% inter:61.6%
x264 [info]: direct mvs  spatial:96.5% temporal:3.5%
x264 [info]: coded y,uvDC,uvAC intra: 82.2% 85.2% 66.7% inter: 11.6% 15.2% 3.4%
x264 [info]: i16 v,h,dc,p: 22% 12%  3% 63%
x264 [info]: i8 v,h,dc,ddl,ddr,vr,hd,vl,hu: 11%  8%  5%  9% 13% 15% 12% 14% 13%
x264 [info]: i4 v,h,dc,ddl,ddr,vr,hd,vl,hu: 11%  8%  8% 10% 15% 14% 12% 11% 12%
x264 [info]: i8c dc,h,v,p: 44% 21% 19% 17%
x264 [info]: Weighted P-Frames: Y:0.9% UV:0.4%
x264 [info]: ref P L0: 50.9%  7.9% 19.1%  6.9%  5.4%  4.0%  3.5%  2.2%  0.2%  0.0%
x264 [info]: ref B L0: 77.5% 11.4%  5.3%  2.5%  1.8%  1.0%  0.5%
x264 [info]: ref B L1: 93.9%  6.1%
x264 [info]: kb/s:1658.77
picpicpic
Для увеличения картинки щелкните мышкой по превью

Этот торрент недоступен для скачивания без регистрации, однако доступен по публичной magnet-ссылке (источники с публичных трекеров). Перед использованием ссылки прочтите, пожалуйста Пользовательское соглашение, а также как можно дольше оставайтесь на раздаче! Для того, чтобы скачать сам торрент-файл (который видит больше источников), а также для того, чтобы поблагодарить релизера, вам необходимо зарегистрироваться. Если регистрироваться лень - вы можете также попробовать скачать релиз по нашим партнерским ссылкам ниже.

[underverse.su].t19815.torrent
Трекер: Зарегистрирован   [ 12.09.2012 11:32 ]  

Статус: проверено (by Паукан at 17.09.2012 18:04)
Поблагодарили: пока никто не поблагодарил...
Тип торрента: публичный - доступные источники с открытых трекеров: 
Размер: 2,18 GB (занимает 1/2 DVDR, для записи нужно 1 болванка DVDR/RW)
 
 
Похожие темы
Форум Тема Автор Торрент Отв. Посл. сооб.
Зарубежное кино [DVDRip, Low-Res HDRip, и т.д.] Думай, как мужчина / Think Like a Man (Тим Стори) [2012 г., мелодрама, комедия, HDRip] RG NewCinema
5 | 0

2 | 1310

98

30.09.2012 09:28

T Зарубежное кино [DVDRip, Low-Res HDRip, и т.д.] Думай, как мужчина 2 / Think Like a Man Too (Тим Стори) [2014 г., Комедия, HDRip] MVO (RUS, iTunes Russia) + Original (ENG) Ведьмочка
39 | 1

0 | 480

1

06.10.2014 00:23

T Зарубежное кино [DVDRip, Low-Res HDRip, и т.д.] Думай, как мужчина 2 / Think Like a Man Too (Тим Стори) [2014 г., Комедия, HDRip] MVO (RUS, iTunes Russia) Ведьмочка
36 | 2

0 | 614

17

06.10.2014 00:26

T Зарубежное кино [HDDVDRip / BDRip / WEB-DL / HDTV 1080/720р] Думай, как мужчина 2 / Think Like a Man Too (Тим Стори) [2014 г., Комедия, BDRip 720p] MVO (RUS, iTunes Russia) + Original (ENG) + Subs (ENG, CHN, FRA, IDN, KOR, PRT, ESP, THA) Ведьмочка
14 | 0

0 | 509

5

06.10.2014 00:18



Последний раз редактировалось: Garnett (17.09.2012 18:00), всего редактировалось 1 раз

Паукан Пол:Муж

12-Сен-2012 12:44

Укажите, пожалуйста, тип перевода.

17-Сен-2012 09:01

Топик был перенесен из форума Зарубежное кино [DVDRip, Low-Res HDRip, и т.д.] в форум Отстойник


gari
 

17-Сен-2012 18:04

Топик был перенесен из форума Отстойник в форум Зарубежное кино [DVDRip, Low-Res HDRip, и т.д.]


dj_maxx
 

Яндекс.Метрика powered by Sphinx


В Н И М А Н И Е
Сайт не распространяет и не хранит электронные версии произведений, а лишь бесплатно и без коммерческой выгоды (не требуя взамен платы,
SMS и т.д.) предоставляет доступ к создаваемому пользователями каталогу ссылок на торрент-файлы, которые содержат только списки хеш-сумм.
Убедительная просьба с жалобами обращаться напрямую к пользователю, разместившему торрент файл.

Вверх