Loading...
Error

Джунгли зовут! В поисках Марсупилами / Sur la piste du Marsupilami (Ален Шаба) [2012 г., комедия, приключения, семейный, HDRip] (Rus, Fra) HQ Underverse

Статистика раздачи
Размер:  2,17 GB   |    Зарегистрирован:  4 года 2 месяца   |    Скачан:  43 раза

Полного источника не было: 2 дня 6 часов

Сидов:  0  |  0 KB/s  ]   Личеров:  0  |  0 KB/s  ]

* - сиды/пиры с внешних источников

   
 
Автор Сообщение

HQ Underverse 

11-Сен-2012 10:53

Джунгли зовут! В поисках Марсупилами / Sur la piste du Marsupilami


Год выпуска: 2012
Жанр: комедия, приключения, семейный
Страна: Франция , Бельгия
Режиссер: Ален Шаба
В ролях: Жамель Деббуз, Ален Шаба, Фред Тесто, Ламбер Вильсон, Жеральдин Накаш, Лия Кебеде, Патрик Тимсит, Жак Вебер, Айсса Майга, Далип Синх
Сюжет фильма:
Cпасти карьеру некогда знаменитого телеведущего Дэна Джеральдо может лишь одно — сенсация. В поисках жареных фактов журналист отправляется в таинственную страну Паломбию. С помощью неутомимого местного авантюриста Паблито он выходит на след самого загадочного существа на Земле — рыжего и пушистого, сумчатого и хвостатого зверя Марсупилами. Обаятельнейшее животное каким-то непостижимым образом связано с тайной вечной молодости, и на него объявлена настоящая охота. Путешественникам придется спасти Марсупилами от безумных ученых, грозных военных, алчных браконьеров и прочих напастей, которые таят джунгли.

  • Мировая премьера: 4 апреля 2012
  • Российская премьера: 2 августа 2012, «Вольга»

|
Качество видео: HDRip

Продолжительность: 01:44:31
Формат: avi
Видео: XviD, 720x304, 2192 kbps
Аудио #1: русский, дублированный [лицензия], AC3 5.1, 384 kbps
Аудио #2: французский, оригинал, AC3 5.1, 384 kbps
Субтитры: внешние, SRT, русский (FORCED) (на narod.ru)

Код:

General
Complete name                    : Z:\Видео\HQ\Джунгли зовут - в поисках Марсупилами\Sur.la.piste.du.Marsupilami.2012.HDRip.XviD.AC3.Rus.D.Fra.O.HQ.Underverse.avi
Format                           : AVI
Format/Info                      : Audio Video Interleave
Format profile                   : OpenDML
File size                        : 2.17 GiB
Duration                         : 1h 44mn
Overall bit rate                 : 2 978 Kbps
Writing application              : VirtualDubMod 1.5.10.2 (build 2542/release)
Writing library                  : VirtualDubMod build 2542/release

Video
ID                               : 0
Format                           : MPEG-4 Visual
Format profile                   : Streaming Video@L1
Format settings, BVOP            : Yes
Format settings, QPel            : No
Format settings, GMC             : No warppoints
Format settings, Matrix          : Custom
Muxing mode                      : Packed bitstream
Codec ID                         : XVID
Codec ID/Hint                    : XviD
Duration                         : 1h 44mn
Bit rate                         : 2 193 Kbps
Width                            : 720 pixels
Height                           : 304 pixels
Display aspect ratio             : 2.35
Frame rate                       : 24.000 fps
Resolution                       : 24 bits
Colorimetry                      : 4:2:0
Scan type                        : Progressive
Bits/(Pixel*Frame)               : 0.417
Stream size                      : 1.60 GiB (74%)
Writing library                  : XviD 64

Audio #1
ID                               : 1
Format                           : AC-3
Format/Info                      : Audio Coding 3
Codec ID                         : 2000
Duration                         : 1h 44mn
Bit rate mode                    : Constant
Bit rate                         : 384 Kbps
Channel(s)                       : 6 channels
Channel positions                : Front: L C R, Surround: L R, LFE
Sampling rate                    : 48.0 KHz
Stream size                      : 287 MiB (13%)
Alignment                        : Split accross interleaves
Interleave, duration             : 42 ms (1.00 video frame)
Interleave, preload duration     : 500 ms

Audio #2
ID                               : 2
Format                           : AC-3
Format/Info                      : Audio Coding 3
Codec ID                         : 2000
Duration                         : 1h 44mn
Bit rate mode                    : Constant
Bit rate                         : 384 Kbps
Channel(s)                       : 6 channels
Channel positions                : Front: L C R, Surround: L R, LFE
Sampling rate                    : 48.0 KHz
Stream size                      : 287 MiB (13%)
Alignment                        : Split accross interleaves
Interleave, duration             : 42 ms (1.00 video frame)
Interleave, preload duration     : 500 ms

Семпл: http://multi-up.com/759126

Релиз группы:

picpicpic
Для увеличения картинки щелкните мышкой по превью

Этот торрент недоступен для скачивания без регистрации, однако доступен по публичной magnet-ссылке (источники с публичных трекеров). Перед использованием ссылки прочтите, пожалуйста Пользовательское соглашение, а также как можно дольше оставайтесь на раздаче! Для того, чтобы скачать сам торрент-файл (который видит больше источников), а также для того, чтобы поблагодарить релизера, вам необходимо зарегистрироваться. Если регистрироваться лень - вы можете также попробовать скачать релиз по нашим партнерским ссылкам ниже.

[underverse.su].t19788.torrent
Трекер: Зарегистрирован   [ 11.09.2012 10:53 ]  

Статус: проверено (by Паукан at 11.09.2012 14:00)
Поблагодарили: 3 человека
Тип торрента: публичный - доступные источники с открытых трекеров: 
Размер: 2,17 GB (занимает 1/2 DVDR, для записи нужно 1 болванка DVDR/RW)
 
 
Похожие темы
Форум Тема Автор Торрент Отв. Посл. сооб.
Зарубежное кино [DVDRip, Low-Res HDRip, и т.д.] Джунгли зовут! В поисках Марсупилами / Sur la piste du Marsupilami (Ален Шаба) [2012 г., комедия, приключения, семейный, HDRip] [лицензия] 90ytr90
2 | 0

1 | 812

87

04.02.2013 10:40


Яндекс.Метрика powered by Sphinx


В Н И М А Н И Е
Сайт не распространяет и не хранит электронные версии произведений, а лишь бесплатно и без коммерческой выгоды (не требуя взамен платы,
SMS и т.д.) предоставляет доступ к создаваемому пользователями каталогу ссылок на торрент-файлы, которые содержат только списки хеш-сумм.
Убедительная просьба с жалобами обращаться напрямую к пользователю, разместившему торрент файл.

Вверх