Loading...
Error

Семя Дьявола / Devil Seed (Грег А. Сейджер) [2012 г., ужасы, DVDRip]

Статистика раздачи
Размер:  1,37 GB   |    Зарегистрирован:  4 года 2 месяца   |    Скачан:  17 раз

Полного источника не было: 3 месяца 15 дней

Сидов:  0  |  0 KB/s  ]   Личеров:  0  |  0 KB/s  ]

* - сиды/пиры с внешних источников

   
 
Автор Сообщение

nemos Пол:Муж

10-Сен-2012 19:47

Семя Дьявола / Devil Seed [Грег А. Сейджер]


Год выпуска: 2012
Жанр: ужасы
Страна: Канада
Режиссер: Грег А. Сейджер
В ролях: Vanessa Broze, Мишель Аргирис, Shantelle Canzanese, Кевин Джейк Уолкер, Вейн Конрой, Майкл Дж. Уилмот
Сюжет фильма:
Окончание летних каникул совпало для трёх студенток с переездом в новый дом. Возвращаясь с клубной вечеринки в честь новоселья, подвыпившие подруги решили шутки ради заглянуть к местной гадалке. Визит закончился невесело — Алекс, одна из девушек, потеряла сознание, а уже на следующий день вокруг неё начала твориться разная чертовщина, в итоге натолкнувшая Алекс на мысль, что она одержима демоном.


Качество видео: DVDRip

Продолжительность: 01:33:00
Формат: AVI
Видео: XviD, 720x288, 1890kbps
Аудио: русский, одноголосый закадровый (любительский), AC3 2.0, 192 kbps

Код:

E:\СКАЧКИ\С underverse\Semya djyavola.avi
   General
      Complete name : E:\СКАЧКИ\С underverse\Semya djyavola.avi
      Format : AVI
      Format/Info : Audio Video Interleave
      File size : 1.37 GiB
      Duration : 1h 33mn
      Overall bit rate : 2 092 Kbps
      Writing application : VirtualDubMod 1.5.10.2 (build 2540/release)
      Writing library : VirtualDubMod build 2540/release
   Video #0
      ID : 0
      Format : MPEG-4 Visual
      Format profile : Advanced Simple@L5
      Format settings, BVOP : Yes
      Format settings, QPel : No
      Format settings, GMC : No warppoints
      Format settings, Matrix : Custom
      Codec ID : XVID
      Codec ID/Hint : XviD
      Duration : 1h 33mn
      Bit rate : 1 890 Kbps
      Width : 720 pixels
      Height : 288 pixels
      Display aspect ratio : 2.500
      Frame rate : 25.000 fps
      Color space : YUV
      Chroma subsampling : 4:2:0
      Bit depth : 8 bits
      Scan type : Progressive
      Bits/(Pixel*Frame) : 0.365
      Stream size : 1.24 GiB (90%)
      Writing library : XviD 1.2.1 (UTC 2008-12-04)
   Audio #1
      ID : 1
      Format : AC-3
      Format/Info : Audio Coding 3
      Mode extension : CM (complete main)
      Codec ID : 2000
      Duration : 1h 33mn
      Bit rate mode : Constant
      Bit rate : 192 Kbps
      Channel(s) : 2 channels
      Channel positions : Front: L R
      Sampling rate : 44.1 KHz
      Stream size : 129 MiB (9%)
      Alignment : Split accross interleaves
      Interleave, duration : 40 ms (1.00 video frame)
      Interleave, preload duration : 500 ms
Семпл: http://multi-up.com/758929

picpicpicpicpicpicpicpicpicpicpicpic
Для увеличения картинки щелкните мышкой по превью

Этот торрент недоступен для скачивания без регистрации, однако доступен по публичной magnet-ссылке (источники с публичных трекеров). Перед использованием ссылки прочтите, пожалуйста Пользовательское соглашение, а также как можно дольше оставайтесь на раздаче! Для того, чтобы скачать сам торрент-файл (который видит больше источников), а также для того, чтобы поблагодарить релизера, вам необходимо зарегистрироваться. Если регистрироваться лень - вы можете также попробовать скачать релиз по нашим партнерским ссылкам ниже.

[underverse.su].t19785.torrent
Трекер: Зарегистрирован   [ 10.09.2012 19:47 ]  

Статус: проверено (by Паукан at 11.09.2012 10:14)
Поблагодарили: пока никто не поблагодарил...
Тип торрента: публичный - доступные источники с открытых трекеров: 
Размер: 1,37 GB (занимает 0,31 DVDR, для записи нужно 1 болванка DVDR/RW)
 
 

Яндекс.Метрика powered by Sphinx


В Н И М А Н И Е
Сайт не распространяет и не хранит электронные версии произведений, а лишь бесплатно и без коммерческой выгоды (не требуя взамен платы,
SMS и т.д.) предоставляет доступ к создаваемому пользователями каталогу ссылок на торрент-файлы, которые содержат только списки хеш-сумм.
Убедительная просьба с жалобами обращаться напрямую к пользователю, разместившему торрент файл.

Вверх