Loading...
Error

Теория Большого Взрыва / The Big Bang Theory / Сезон 5 Серии 1-24 (24) (Марк Сендроуски) [2011-2012 г., комедия, HDTVRip] Кураж-Бамбей

Статистика раздачи
Размер:  4,08 GB   |    Зарегистрирован:  4 года 2 месяца   |    Скачан:  21 раз

Полного источника не было: 1 месяц 25 дней

Сидов:  0  |  0 KB/s  ]   Личеров:  0  |  0 KB/s  ]

* - сиды/пиры с внешних источников

   
 
Автор Сообщение

Jimmy Пол:Муж

10-Сен-2012 14:33

Теория Большого Взрыва / The Big Bang Theory
Год выпуска: 2011-2012
Жанр: комедия
Страна: США
Режиссер: Марк Сендроуски
В ролях: Джонни Галекки, Джим Парсонс, Кейли Куоко, Саймон Хельберг, Кунал Найяр
Сюжет фильма:
Два блестящих физика, Леонард и Шелдон, «великие умы», которые понимают как «работает вселенная». Но их гениальность ничуть не помогает им общаться с людьми, особенно с женщинами. Всё начинает меняться, когда напротив них поселяется красавица Пенни.
Когда Леонард и Шелдон встречают Пенни, Леонард сразу же начинает интересоваться ею. Он видит в общении с Пенни огромную перспективу… вплоть до любви, однако Шелдон понимает, что мечтам его друга не суждено сбыться.
Стоит также отметить пару странных друзей этих физиков: Воловиц, который любит употреблять фразы на разных языках, включая русский, и Раджеш Кутраппали, теряющий дар речи при виде женщин.

Качество видео: HDTVRip
Продолжительность: 00:21:11
Формат: avi
Видео: XviD, 624x352, 992 kbps
Аудио: русский, одноголосый закадровый [профессиональный], MP3 2.0, 160 kbps

Код:

General
Complete name                    : F:\Видео\Сериалы\The Big Bang Theory - Season 5- [Kuraj-Bambey.Ru]\The.Big.Bang.Theory.S05E01.rus.HDTVrip.[Kuraj-Bambey.Ru].avi
Format                           : AVI
Format/Info                      : Audio Video Interleave
File size                        : 176 MiB
Duration                         : 21mn 11s
Overall bit rate                 : 1 162 Kbps
Writing application              : Some super fast AVI muxer
Writing library                  : VirtualDub-MPEG2 build 24586/release

Video
ID                               : 0
Format                           : MPEG-4 Visual
Format profile                   : Streaming Video@L1
Format settings, BVOP            : Yes
Format settings, QPel            : No
Format settings, GMC             : No warppoints
Format settings, Matrix          : Default (H.263)
Codec ID                         : XVID
Codec ID/Hint                    : XviD
Duration                         : 21mn 11s
Bit rate                         : 992 Kbps
Width                            : 624 pixels
Height                           : 352 pixels
Display aspect ratio             : 16/9
Frame rate                       : 23.976 fps
Resolution                       : 24 bits
Colorimetry                      : 4:2:0
Scan type                        : Progressive
Bits/(Pixel*Frame)               : 0.188
Stream size                      : 150 MiB (85%)
Writing library                  : XviD 70

Audio
ID                               : 1
Format                           : MPEG Audio
Format version                   : Version 1
Format profile                   : Layer 3
Codec ID                         : 55
Codec ID/Hint                    : MP3
Duration                         : 21mn 11s
Bit rate mode                    : Constant
Bit rate                         : 160 Kbps
Channel(s)                       : 2 channels
Sampling rate                    : 48.0 KHz
Resolution                       : 16 bits
Stream size                      : 24.3 MiB (14%)
Alignment                        : Aligned on interleaves
Interleave, duration             : 42 ms (1.00 video frame)
Interleave, preload duration     : 504 ms
Семпл: http://multi-up.com/563776
picpicpicpic
Для увеличения картинки щелкните мышкой по превью

Этот торрент недоступен для скачивания без регистрации, однако доступен по публичной magnet-ссылке (источники с публичных трекеров). Перед использованием ссылки прочтите, пожалуйста Пользовательское соглашение, а также как можно дольше оставайтесь на раздаче! Для того, чтобы скачать сам торрент-файл (который видит больше источников), а также для того, чтобы поблагодарить релизера, вам необходимо зарегистрироваться. Если регистрироваться лень - вы можете также попробовать скачать релиз по нашим партнерским ссылкам ниже.

[underverse.su].t19769.torrent
Трекер: Зарегистрирован   [ 10.09.2012 14:33 ]  

Статус: проверено (by garry at 10.09.2012 14:40)
Поблагодарили: 1 человек
Тип торрента: публичный - доступные источники с открытых трекеров: 
Размер: 4,08 GB (занимает 0,93 DVDR, для записи нужно 1 болванка DVDR/RW)
 
 
Похожие темы
Форум Тема Автор Торрент Отв. Посл. сооб.
Зарубежные сериалы Теория большого взрыва / The Big Bang Theory / Весь 1 сезон (17 серий) (Марк Цендровски) [2007 г., комедия, HDTVRip] boz1i
4 | 4

1 | 3587

52

31.05.2011 18:02

T Зарубежные сериалы Теория Большого Взрыва / The Big Bang Theory / Сезон: 7 / Серии: 01-13 (Марк Сендроуски) [2013-2014 г., ситком, HDTVRip] VO (Кураж-Бамбей) + Original garry
0 | 0

4 | 2134

31

15.03.2014 08:09

Зарубежные сериалы Теория большого взрыва / The Big Bang Theory / Сезоны 1-8 (1-183 серии из 183) (Марк Сендроуски, Энтони Джозеф Рич, Питер Чакос) [2007-2015 г., комедия, HDTVRip] VO older
7 | 11

0 | 606

12

11.09.2015 14:23

T Зарубежные сериалы Теория большого взрыва / The big bang theory / Сезон 9 (1-10 серии из 24) (Марк Сендроуски, Энтони Джозеф Рич, Питер Чакос) [2015 г., комедия, HDTVRip] VO + Original older
313 | 125

7 | 1447

21

16.12.2015 04:47

* Архив Теория большого взрыва / The Big Bang Theory /Весь 2 сезон (Марк Цендровски) [2008 -2009 г., комедия, HDTVRip] boz1i

8 | 2163

19.03.2011 16:29

Архив Теория Большого Взрыва / The Big Bang Theory / Сезон: 6 / Серии: 1-5 (24) (Марк Сендроуски) [2012 г., комедия, WEBDLRip] AVO + Original Jimmy
0 | 0

3 | 1389

12

19.03.2013 14:01

Зарубежные сериалы [BD / Remux / BDRip / WEB-DL / HDTV 1080/720р] Теория Большого Взрыва / The Big Bang Theory / Сезон: 6 / Серии: 1-24 (24) (Марк Сендроуски) [2012 г., комедия, WEBDLRip 1080p] AVO + Original Jimmy
3 | 0

12 | 5546

42

06.01.2014 18:10


Яндекс.Метрика powered by Sphinx


В Н И М А Н И Е
Сайт не распространяет и не хранит электронные версии произведений, а лишь бесплатно и без коммерческой выгоды (не требуя взамен платы,
SMS и т.д.) предоставляет доступ к создаваемому пользователями каталогу ссылок на торрент-файлы, которые содержат только списки хеш-сумм.
Убедительная просьба с жалобами обращаться напрямую к пользователю, разместившему торрент файл.

Вверх